Results 1 to 1 of 1
  1. #1
    Super Member www.desirulez.net
    Join Date
    Oct 2010
    Posts
    181

    T

    Default RAMBO FIRST BLOOD PART II(1985)[DVDRip][DUAL AUDIO][HINDI-ENG]

    Follow us on Social Media







    RAMBO FIRST BLOOD PART II(1985)[DVDRip][DUAL AUDIO][HINDI-ENG]

    Code:
    Rambo: First Blood Part II (1985)
    
    General
    Complete name :Rambo First Blood Part.II[Dual Audo][Hin-Eng].mkv
    Format : Matroska
    File size : 548 MiB
    Duration : 1h 31mn
    Overall bit rate : 835 Kbps
    Encoded date : UTC 2010-04-30 05:20:18
    Writing application : mkvmerge v3.2.0 ('Beginnings') built on Feb 12 2010 16:46:17
    Writing library : libebml v0.7.9 + libmatroska v0.8.1
    Ripper :-=!|Srj4|!=-
    
    Video
    ID : 1
    Format : AVC
    Format/Info : Advanced Video Codec
    Format profile : [email protected]
    Format settings, CABAC : Yes
    Format settings, ReFrames : 3 frames
    Muxing mode : Container [email protected]
    Codec ID : V_MPEG4/ISO/AVC
    Duration : 1h 31mn
    Bit rate : 563 Kbps
    Width : 700 pixels
    Height : 296 pixels
    Display aspect ratio : 2.35:1
    Frame rate : 25.000 fps
    Resolution : 8 bits
    Colorimetry : 4:2:0
    Scan type : Progressive
    Bits/(Pixel*Frame) : 0.109
    Stream size : 369 MiB (67%)
    Writing library : x264 core 80 r1376M 3feaec2
    
    Language : English
    
    Audio #1
    ID : 2
    Format : MPEG Audio
    Format version : Version 1
    Format profile : Layer 3
    Mode : Joint stereo
    Format_Settings_ModeExtension : MS Stereo
    Codec ID : A_MPEG/L3
    Codec ID/Hint : MP3
    Duration : 1h 31mn
    Bit rate mode : Constant
    Bit rate : 128 Kbps
    Channel(s) : 2 channels
    Sampling rate : 48.0 KHz
    Video delay : 200ms
    Stream size : 83.9 MiB (15%)
    Title : Track 1
    Language : Hindi
    
    Audio #2
    ID : 3
    Format : MPEG Audio
    Format version : Version 1
    Format profile : Layer 3
    Codec ID : A_MPEG/L3
    Codec ID/Hint : MP3
    Duration : 1h 31mn
    Bit rate mode : Constant
    Bit rate : 128 Kbps
    Channel(s) : 2 channels
    Sampling rate : 48.0 KHz
    Stream size : 83.9 MiB (15%)
    Title : Track 2
    Language : English
    Text
    ID : 4
    Format : UTF-8
    Codec ID : S_TEXT/UTF8
    Codec ID/Info : UTF-8 Plain Text
    Language : English






    Code:
    http://www.fileserve.com/file/GDgXM9h
    http://www.fileserve.com/file/nyqxapM
    http://www.fileserve.com/file/pG6jFJG

 

 

Posting Permissions

  • You may not post new threads
  • You may not post replies
  • You may not post attachments
  • You may not edit your posts
  •