Results 1 to 1 of 1
  1. #1
    Super Member www.desirulez.net
    Join Date
    Oct 2010
    Posts
    181

    Default Adab-hydrabad-too-hot-screenshot-must-see

    Follow us on Social Media





    Adab-hydrabad-too-hot-screenshot-must-see

    Code:
    General
    Complete name                    : Adab-hyderabad-b-hot.avi
    Format                           : AVI
    Format/Info                      : Audio Video Interleave
    File size                        : 113 MiB
    Duration                         : 4mn 14s
    Overall bit rate                 : 3 730 Kbps
    Writing library                  : MPlayer
    
    Video
    ID                               : 0
    Format                           : MPEG-4 Visual
    Format profile                   : Advanced [email protected]
    Format settings, BVOP            : Yes
    Format settings, QPel            : No
    Format settings, GMC             : No warppoints
    Format settings, Matrix          : Default (H.263)
    Codec ID                         : XVID
    Codec ID/Hint                    : XviD
    Duration                         : 4mn 14s
    Bit rate                         : 3 599 Kbps
    Width                            : 640 pixels
    Height                           : 272 pixels
    Display aspect ratio             : 2.35:1
    Frame rate                       : 23.976 fps
    Color space                      : YUV
    Chroma subsampling               : 4:2:0
    Bit depth                        : 8 bits
    Scan type                        : Progressive
    Bits/(Pixel*Frame)               : 0.862
    Stream size                      : 109 MiB (96%)
    Writing library                  : XviD 1.2.0.dev47 (UTC 2006-11-01)
    
    Audio
    ID                               : 1
    Format                           : MPEG Audio
    Format version                   : Version 1
    Format profile                   : Layer 3
    Mode                             : Joint stereo
    Mode extension                   : MS Stereo
    Codec ID                         : 55
    Codec ID/Hint                    : MP3
    Duration                         : 4mn 14s
    Bit rate mode                    : Variable
    Bit rate                         : 118 Kbps
    Channel(s)                       : 2 channels
    Sampling rate                    : 48.0 KHz
    Stream size                      : 3.58 MiB (3%)
    Alignment                        : Aligned on interleaves
    Interleave, duration             : 24 ms (0.58 video frame)
    Interleave, preload duration     : 423 ms





    Code:
    http://www.fileserve.com/file/u4FGrcM/Aadab.Hyderabad hot song.avi

 

 

Posting Permissions

  • You may not post new threads
  • You may not post replies
  • You may not post attachments
  • You may not edit your posts
  •