Results 1 to 1 of 1
  1. #1
    Super Member www.desirulez.net
    Join Date
    Oct 2010
    Posts
    181

    T

    Default Resident Evil: Afterlife (2010) -Hindi-DVDRiP dual audio

    Follow us on Social Media







    Resident Evil: Afterlife (2010) -Hindi-DVDRiP













    Code:
    General
    Format                           : Matroska
    File size                        : 659 MiB
    Duration                         : 1h 32mn
    Overall bit rate                 : 993 Kbps
    Encoded date                     : UTC 2010-10-07 06:30:14
    Writing application              : mkvmerge v4.2.0 ('No Talking') built on Jul 28 2010 18:38:23
    Writing library                  : libebml v1.0.0 + libmatroska v1.0.0
    
    Video
    ID                               : 1
    Format                           : AVC
    Format/Info                      : Advanced Video Codec
    Format profile                   : [email protected]
    Format settings, CABAC           : Yes
    Format settings, ReFrames        : 1 frame
    Muxing mode                      : Container [email protected]
    Codec ID                         : V_MPEG4/ISO/AVC
    Duration                         : 1h 32mn
    Bit rate                         : 870 Kbps
    Width                            : 640 pixels
    Height                           : 272 pixels
    Display aspect ratio             : 2.35:1
    Frame rate                       : 25.000 fps
    Color space                      : YUV
    Chroma subsampling               : 4:2:0
    Bit depth                        : 8 bits
    Scan type                        : Progressive
    Bits/(Pixel*Frame)               : 0.200
    Stream size                      : 561 MiB (85%)
    Writing library                  : x264 core 67 r1163+17 7d945df
    Encoding settings                : cabac=1 / ref=1 / deblock=1:0:0 / analyse=0x1:0x111 / me=hex / subme=6 / psy_rd=1.0:0.0 / mixed_ref=0 / me_range=16 / chroma_me=1 / trellis=0 / 8x8dct=0 / cqm=0 / deadzone=21,11 / chroma_qp_offset=-2 / threads=1 / nr=0 / decimate=1 / mbaff=0 / bframes=0 / keyint=250 / keyint_min=25 / scenecut=40 / rc=abr / bitrate=870 / ratetol=1.0 / qcomp=0.60 / qpmin=10 / qpmax=51 / qpstep=4 / ip_ratio=1.40 / aq=1:1.00
    
    Audio #1
    ID                               : 2
    Format                           : MPEG Audio
    Format version                   : Version 2
    Format profile                   : Layer 3
    Mode                             : Joint stereo
    Mode extension                   : MS Stereo
    Codec ID                         : A_MPEG/L3
    Codec ID/Hint                    : MP3
    Duration                         : 1h 32mn
    Bit rate mode                    : Constant
    Bit rate                         : 64.0 Kbps
    Channel(s)                       : 2 channels
    Sampling rate                    : 22.05 KHz
    Stream size                      : 42.5 MiB (6%)
    Title                            : imkhan
    Writing library                  : LAME3.98.2
    Language                         : Hindi
    
    Audio #2
    ID                               : 3
    Format                           : MPEG Audio
    Format version                   : Version 2
    Format profile                   : Layer 3
    Mode                             : Joint stereo
    Mode extension                   : MS Stereo
    Codec ID                         : A_MPEG/L3
    Codec ID/Hint                    : MP3
    Duration                         : 1h 32mn
    Bit rate mode                    : Constant
    Bit rate                         : 64.0 Kbps
    Channel(s)                       : 2 channels
    Sampling rate                    : 22.05 KHz
    Stream size                      : 42.5 MiB (6%)
    Title                            : imkhan
    Writing library                  : LAME3.98.2

    Code:
    http://www.fileserve.com/file/UDvJFTe
    http://www.fileserve.com/file/FvMVUZc
    http://www.fileserve.com/file/GPN9Kch
    http://www.fileserve.com/file/ptaEACQ

    SAY THANKS PLEASE

 

 

Posting Permissions

  • You may not post new threads
  • You may not post replies
  • You may not post attachments
  • You may not edit your posts
  •