Results 1 to 1 of 1
  1. #1
    Super Member www.desirulez.net
    Join Date
    Oct 2010
    Posts
    181

    T

    Default Mission Impossible 1(1996)[DVDRip][AC3-5.1][Dual Audio][Eng-Hindi]

    Follow us on Social Media







    Mission Impossible 1(1996)[DVDRip][AC3-5.1][Dual Audio][Eng-Hindi]

    Code:
    INFO:
    Title..................: Mission Impossible 1
    Year...................: 1996 
    Genre..................: Action | Thriller
    Directer...............: Brian De Palma
    Run time...............: 1h 45mn 43sec
    size ..................: 893 MB
    Languages..............: English.Hindi
    _______________________________________________ _________________________
    Video
    Format : MKV
    Duration : 1h 45mn 43sec
    Display aspect ratio : 16:9
    Resolution : 648*276
    Stream size : 649 MiB 
    __________________________________________________ _____________________________
    Audio #1 :English
    ID : 1
    Format : AC-3
    Duration : 1h 45mn 43 sec
    Bit rate mode : Constant
    Bit rate : 192 Kbps
    Channel(s) : 6 channels
    Channel positions : Front: L C R, Side: L R, LFE
    Sampling rate : 48.0 KHz
    Stream size : 145 MiB 
    _______________________________________________ __________________________
    Audio #2 :Hindi
    ID : 2
    Format : MPEG 1 Layer 3 
    Duration : 1h 45mn 43sec
    Bit rate mode : Constant
    Bit rate : 128 Kbps
    Channel(s) : 2 channels
    Channel positions : Front: L R
    Sampling rate : 44100 Hz
    Stream size : 97.6 MiB







    Code:
    http://www.fileserve.com/file/NrpZuEh
    http://www.fileserve.com/file/bJeVsS7
    http://www.fileserve.com/file/vvXbYhQ
    http://www.fileserve.com/file/NwkFDjn
    http://www.fileserve.com/file/rak47wK

 

 

Posting Permissions

  • You may not post new threads
  • You may not post replies
  • You may not post attachments
  • You may not edit your posts
  •