Results 1 to 1 of 1
  1. #1
    Runner Up - Admins Awards www.desirulez.net
    Join Date
    Dec 2009
    Posts
    24,894

    T

    Default Hiss (2010) Cam Rip Xvid

    Follow us on Social Media







    Hiss (2010) Cam Rip Xvid









    General

    Format : MPEG-PS
    File size : 839 MiB
    Duration : 1h 20mn
    Overall bit rate : 1 466 Kbps

    Video
    ID : 224 (0xE0)
    Format : MPEG Video
    Format version : Version 2
    Format profile : [email protected]
    Format settings, BVOP : Yes
    Format settings, Matrix : Default
    Format settings, GOP : M=3, N=12
    Duration : 1h 20mn
    Bit rate mode : Variable
    Bit rate : 1 308 Kbps
    Nominal bit rate : 2 519 Mbps
    Width : 720 pixels
    Height : 576 pixels
    Display aspect ratio : 4:3
    Frame rate : 25.000 fps
    Standard : PAL
    Color space : YUV
    Chroma subsampling : 4:2:0
    Bit depth : 8 bits
    Scan type : Progressive
    Bits/(Pixel*Frame) : 0.126
    Stream size : 749 MiB (89%)

    Audio
    ID : 192 (0xC0)
    Format : MPEG Audio
    Format version : Version 1
    Format profile : Layer 2
    Duration : 1h 20mn
    Bit rate mode : Constant
    Bit rate : 128 Kbps
    Channel(s) : 2 channels
    Sampling rate : 48.0 KHz
    Stream size : 73.3 MiB (9%)





















    Code:
    http://www.fileserve.com/file/pRTYumJ/Hiss(2010) 1cd Cam Rip Xvid First On Net.MPG.001
    http://www.fileserve.com/file/8XdD6Ht/Hiss(2010) 1cd Cam Rip Xvid First On Net.MPG.002
    http://www.fileserve.com/file/2G7Ts4f/Hiss(2010) 1cd Cam Rip Xvid First On Net.MPG.003
    http://www.fileserve.com/file/h3UPsds/Hiss(2010) 1cd Cam Rip Xvid First On Net.MPG.004
    http://www.fileserve.com/file/ejBRttK/Hiss(2010) 1cd Cam Rip Xvid First On Net.MPG.005
    Code:
    http://www.mediafire.com/file/vbhdmmn3dwcamgd/Hiss%282010%29%201cd%20Cam%20Rip%20Xvid%20First%20On%20Net.MPG.001
    http://www.mediafire.com/file/ugczaellalxgufq/Hiss%282010%29%201cd%20Cam%20Rip%20Xvid%20First%20On%20Net.MPG.002
    http://www.mediafire.com/file/d99j2aefziafkv9/Hiss%282010%29%201cd%20Cam%20Rip%20Xvid%20First%20On%20Net.MPG.003
    http://www.mediafire.com/file/0d2x6rwe34mt93g/Hiss%282010%29%201cd%20Cam%20Rip%20Xvid%20First%20On%20Net.MPG.004
    http://www.mediafire.com/file/p8zugotb4ssgt68/Hiss%282010%29%201cd%20Cam%20Rip%20Xvid%20First%20On%20Net.MPG.005

    Code:
    http://rapidshare.com/files/426542912/Hiss_2010__1cd_Cam_Rip_Xvid_First_On_Net.MPG.005
    http://rapidshare.com/files/426541733/Hiss_2010__1cd_Cam_Rip_Xvid_First_On_Net.MPG.002
    http://rapidshare.com/files/426541734/Hiss_2010__1cd_Cam_Rip_Xvid_First_On_Net.MPG.001
    http://rapidshare.com/files/426541737/Hiss_2010__1cd_Cam_Rip_Xvid_First_On_Net.MPG.003
    http://rapidshare.com/files/426542902/Hiss_2010__1cd_Cam_Rip_Xvid_First_On_Net.MPG.004

    Code:
    http://hotfile.com/dl/77618594/b749866/Hiss(2010)_1cd_Cam_Rip_Xvid_First_On_Net.MPG.001.html
    http://hotfile.com/dl/77618593/6cddb43/Hiss(2010)_1cd_Cam_Rip_Xvid_First_On_Net.MPG.002.html
    http://hotfile.com/dl/77618592/12e4fca/Hiss(2010)_1cd_Cam_Rip_Xvid_First_On_Net.MPG.003.html
    http://hotfile.com/dl/77618591/1c1ea37/Hiss(2010)_1cd_Cam_Rip_Xvid_First_On_Net.MPG.004.html
    http://hotfile.com/dl/77618590/7652a28/Hiss(2010)_1cd_Cam_Rip_Xvid_First_On_Net.MPG.005.html
    SINGLE LINKS

    Code:
    http://www.fileserve.com/file/8aHUtzS/Hiss(2010) 1cd Cam Rip Xvid First On Net.MPG
    ...being a human...



 

 

Posting Permissions

  • You may not post new threads
  • You may not post replies
  • You may not post attachments
  • You may not edit your posts
  •