Results 1 to 1 of 1
  1. #1
    Super Member www.desirulez.net
    Join Date
    Oct 2010
    Posts
    181

    T

    Default Bijli Si Daude you not everseen hotest song

    Follow us on Social Media







    Bijli Si Daude you not everseen hotest song+screenshots

    Code:
    General
    Complete name                    : Bijli-Si.warez4pc.org.avi
    Format                           : AVI
    Format/Info                      : Audio Video Interleave
    File size                        : 33.8 MiB
    Duration                         : 3mn 58s
    Overall bit rate                 : 1 188 Kbps
    Writing application              : VirtualDubMod 1.5.4.1 (build 2178/release)
    Writing library                  : VirtualDubMod build 2178/release
    Video
    ID                               : 0
    Format                           : MPEG-4 Visual
    Format profile                   : Advanced [email protected]
    Format settings, BVOP            : Yes
    Format settings, QPel            : No
    Format settings, GMC             : No warppoints
    Format settings, Matrix          : Custom
    Codec ID                         : XVID
    Codec ID/Hint                    : XviD
    Duration                         : 3mn 58s
    Bit rate                         : 1 085 Kbps
    Width                            : 688 pixels
    Height                           : 320 pixels
    Display aspect ratio             : 2.2:1
    Frame rate                       : 23.976 fps
    Color space                      : YUV
    Chroma subsampling               : 4:2:0
    Bit depth                        : 8 bits
    Scan type                        : Progressive
    Bits/(Pixel*Frame)               : 0.206
    Stream size                      : 30.9 MiB (91%)
    Writing library                  : XviD 1.0.2 (UTC 2004-08-29)
    
    Audio
    ID                               : 1
    Format                           : MPEG Audio
    Format version                   : Version 1
    Format profile                   : Layer 3
    Mode                             : Joint stereo
    Mode extension                   : MS Stereo
    Codec ID                         : 55
    Codec ID/Hint                    : MP3
    Duration                         : 3mn 58s
    Bit rate mode                    : Constant
    Bit rate                         : 96.0 Kbps
    Channel(s)                       : 2 channels
    Sampling rate                    : 32.0 KHz
    Stream size                      : 2.73 MiB (8%)
    Alignment                        : Aligned on interleaves
    Interleave, duration             : 84 ms (2.01 video frames)
    Interleave, preload duration     : 504 ms










    Code:
    http://www.fileserve.com/file/q6wtXQ2/Bijli Si Daude.avi
    if u like my post say simple thnkx

 

 

Posting Permissions

  • You may not post new threads
  • You may not post replies
  • You may not post attachments
  • You may not edit your posts
  •