Results 1 to 1 of 1
  1. #1
    Super Member www.desirulez.net
    Join Date
    Oct 2010
    Posts
    181

    T

    Default Watchman (2009) DvdRip in Hindi

    Follow us on Social Media







    Watchman (2009) DvdRip in Hindi



    Format : AVI
    Format/Info : Audio Video Interleave
    Format profile : OpenDML
    File size : 698 MiB
    Duration : 2h 34mn
    Overall bit rate : 632 Kbps
    Writing application : AVI-Mux GUI 1.17.7, Aug 8 2006 20:59:17

    Video
    ID : 0
    Format : MPEG-4 Visual
    Format profile : Advanced [email protected]
    Format settings, BVOP : Yes
    Format settings, QPel : No
    Format settings, GMC : No warppoints
    Format settings, Matrix : Default (MPEG)
    Codec ID : XVID
    Codec ID/Hint : XviD
    Duration : 2h 34mn
    Bit rate : 565 Kbps
    Width : 608 pixels
    Height : 416 pixels
    Display aspect ratio : 3:2
    Frame rate : 23.976 fps
    Color space : YUV
    Chroma subsampling : 4:2:0
    Bit depth : 8 bits
    Scan type : Progressive
    Bits/(Pixel*Frame) : 0.093
    Stream size : 624 MiB (89%)
    Writing library : XviD 1.2.1 (UTC 2008-12-04)

    Audio
    ID : 1
    Format : MPEG Audio
    Format version : Version 2
    Format profile : Layer 3
    Mode : Joint stereo
    Mode extension : MS Stereo
    Codec ID : 55
    Codec ID/Hint : MP3
    Duration : 2h 34mn
    Bit rate mode : Constant
    Bit rate : 64.0 Kbps
    Channel(s) : 2 channels
    Sampling rate : 24.0 KHz
    Stream size : 70.7 MiB (10%)
    Alignment : Aligned on interleaves
    Interleave, duration : 986 ms (23.65 video frames)
    Interleave, preload duration : 216 ms
    Title : MPEG Tc0 L2 2ch 44.1 224 DELAY 0ms
    Writing library : LAME3.98r
    Encoding settings : -m j -V 4 -q 2 -lowpass 11 -b 64







    Code:
    http://www.fileserve.com/file/36aj76T/Watchman_2009.warez4pc_team.part1.rar
    http://www.fileserve.com/file/rYgBnEZ/Watchman_2009.warez4pc_team.part2.rar
    http://www.fileserve.com/file/SZYrKwx/Watchman_2009.warez4pc_team.part3.rar
    http://www.fileserve.com/file/YgFutqy/Watchman_2009.warez4pc_team.part4.rar
    http://www.fileserve.com/file/W2X8AQZ/Watchman_2009.warez4pc_team.part5.rar
    http://www.fileserve.com/file/WpXza6C/Watchman_2009.warez4pc_team.part6.rar
    http://www.fileserve.com/file/uegeHvz/Watchman_2009.warez4pc_team.part7.rar

    JUST SAY THANKS

 

 

Posting Permissions

  • You may not post new threads
  • You may not post replies
  • You may not post attachments
  • You may not edit your posts
  •