Results 1 to 1 of 1
  1. #1
    Super Member www.desirulez.net
    Join Date
    Oct 2010
    Posts
    181

    T

    Default Ghost_Rider_2007_Hindi-DVDRip

    Follow us on Social Media







    Ghost_Rider_2007_Hindi-DVDRip


    Code:
    Format                           : AVI
    Format/Info                      : Audio Video Interleave
    Format profile                   : OpenDML
    File size                        : 701 MiB
    Duration                         : 1h 45mn
    Overall bit rate                 : 929 Kbps
    Writing application              : AVI-Mux GUI 1.17.7, Aug  8 2006  20:59:17
    
    Video
    ID                               : 0
    Format                           : MPEG-4 Visual
    Format profile                   : Advanced [email protected]
    Format settings, BVOP            : Yes
    Format settings, QPel            : No
    Format settings, GMC             : No warppoints
    Format settings, Matrix          : Default (H.263)
    Muxing mode                      : Packed bitstream
    Codec ID                         : XVID
    Codec ID/Hint                    : XviD
    Duration                         : 1h 45mn
    Bit rate                         : 814 Kbps
    Width                            : 608 pixels
    Height                           : 256 pixels
    Display aspect ratio             : 2.35:1
    Frame rate                       : 25.000 fps
    Color space                      : YUV
    Chroma subsampling               : 4:2:0
    Bit depth                        : 8 bits
    Scan type                        : Progressive
    Bits/(Pixel*Frame)               : 0.209
    Stream size                      : 614 MiB (88%)
    Writing library                  : XviD 1.2.1 (UTC 2008-12-04)
    
    Audio
    ID                               : 1
    Format                           : MPEG Audio
    Format version                   : Version 1
    Format profile                   : Layer 3
    Mode                             : Joint stereo
    Mode extension                   : MS Stereo
    Codec ID                         : 55
    Codec ID/Hint                    : MP3
    Duration                         : 1h 45mn
    Bit rate mode                    : Constant
    Bit rate                         : 112 Kbps
    Channel(s)                       : 2 channels
    Sampling rate                    : 44.1 KHz
    Stream size                      : 84.5 MiB (12%)
    Alignment                        : Aligned on interleaves
    Interleave, duration             : 786 ms (19.65 video frames)
    Interleave, preload duration     : 208 ms
    Title                            : gh~smeet T80 3_2ch 448Kbps DELAY 0ms
    Writing library                  : LAME3.98r
    Encoding settings                : -m j -V 4 -q 2 -lowpass 15.6 -b 112







    Code:
    http://www.fileserve.com/file/RU46abz
    http://www.fileserve.com/file/scTBY4D
    http://www.fileserve.com/file/39r3mfh
    http://www.fileserve.com/file/xmRY5jJ
    http://www.fileserve.com/file/Z72CbBh
    http://www.fileserve.com/file/Q4pw5gu
    http://www.fileserve.com/file/rFveUyf

    JUST SAY THANKS

 

 

Posting Permissions

  • You may not post new threads
  • You may not post replies
  • You may not post attachments
  • You may not edit your posts
  •