Results 1 to 1 of 1
  1. #1
    Super Member www.desirulez.net
    Join Date
    Oct 2010
    Posts
    181

    T

    Default Eagle.Eye.HDRip.In.Hindi

    Follow us on Social Media







    Eagle.Eye.HDRip.In.Hindi


    Code:
    Format                           : Matroska
    File size                        : 417 MiB
    Duration                         : 1h 46mn
    Overall bit rate                 : 548 Kbps
    Encoded date                     : UTC 2009-06-09 13:45:18
    Writing application              : mkvmerge v2.8.0 ('The Tree') built on May  9 2009 18:02:06
    Writing library                  : libebml v0.7.7 + libmatroska v0.8.1
    
    Video
    ID                               : 1
    Format                           : AVC
    Format/Info                      : Advanced Video Codec
    Format profile                   : [email protected]
    Format settings, CABAC           : Yes
    Format settings, ReFrames        : 8 frames
    Muxing mode                      : Container [email protected]
    Codec ID                         : V_MPEG4/ISO/AVC
    Duration                         : 1h 46mn
    Bit rate                         : 463 Kbps
    Width                            : 640 pixels
    Height                           : 256 pixels
    Display aspect ratio             : 2.500
    Frame rate                       : 25.000 fps
    Original frame rate              : 23.976 fps
    Color space                      : YUV
    Chroma subsampling               : 4:2:0
    Bit depth                        : 8 bits
    Scan type                        : Progressive
    Bits/(Pixel*Frame)               : 0.113
    Stream size                      : 360 MiB (86%)
    Writing library                  : x264 core 65 r1028M 83baa7f
    Encoding settings                : cabac=1 / ref=8 / deblock=1:-2:-1 / analyse=0x3:0x113 / me=umh / subme=6 / psy_rd=1.0:0.0 / mixed_ref=1 / me_range=16 / chroma_me=1 / trellis=2 / 8x8dct=1 / cqm=0 / deadzone=21,11 / chroma_qp_offset=-2 / threads=3 / nr=0 / decimate=1 / mbaff=0 / bframes=16 / b_pyramid=0 / b_adapt=1 / b_bias=0 / direct=3 / wpredb=1 / keyint=250 / keyint_min=25 / scenecut=40(pre) / rc=2pass / bitrate=463 / ratetol=1.0 / qcomp=0.60 / qpmin=10 / qpmax=51 / qpstep=4 / cplxblur=20.0 / qblur=0.5 / ip_ratio=1.40 / pb_ratio=1.30 / aq=1:1.00
    Language                         : English
    
    Audio
    ID                               : 2
    Format                           : MPEG Audio
    Format version                   : Version 1
    Format profile                   : Layer 3
    Mode                             : Joint stereo
    Mode extension                   : MS Stereo
    Codec ID                         : A_MPEG/L3
    Codec ID/Hint                    : MP3
    Duration                         : 1h 46mn
    Bit rate mode                    : Constant
    Bit rate                         : 64.0 Kbps
    Channel(s)                       : 2 channels
    Sampling rate                    : 44.1 KHz
    Video delay                      : 4s 500ms
    Stream size                      : 48.7 MiB (12%)







    Code:
    http://www.fileserve.com/file/Wv5fahg
    http://www.fileserve.com/file/7ym224r
    http://www.fileserve.com/file/NA7QrT9
    http://www.fileserve.com/file/tJHguwH
    http://www.fileserve.com/file/ZfUHazu
    JUST SAY THANKS

 

 

Posting Permissions

  • You may not post new threads
  • You may not post replies
  • You may not post attachments
  • You may not edit your posts
  •