Results 1 to 1 of 1
  1. #1
    Landed To DesiRulez www.desirulez.net
    Join Date
    Jan 2010
    Posts
    18

    T

    Default Shakira Loca ft Dizzee Full Hd 1080p Video

    Follow us on Social Media







    Shakira Loca ft Dizzee Full Hd 1080p Video

    General
    Format : MPEG-4
    Format profile : Base Media / Version 2
    Codec ID : mp42
    File size : 140 MiB
    Duration : 3mn 25s
    Overall bit rate : 5 747 Kbps
    Encoded date : UTC 2010-09-27 20:38:02
    Tagged date : UTC 2010-09-27 20:38:02

    Video
    ID : 1
    Format : AVC
    Format/Info : Advanced Video Codec
    Format profile : [email protected]
    Format settings, CABAC : Yes
    Format settings, ReFrames : 1 frame
    Codec ID : avc1
    Codec ID/Info : Advanced Video Coding
    Duration : 3mn 25s
    Bit rate mode : Variable
    Bit rate : 5 612 Kbps
    Maximum bit rate : 11.4 Mbps
    Width : 1 920 pixels
    Height : 1 080 pixels
    Display aspect ratio : 16:9
    Frame rate mode : Variable
    Frame rate : 29.970 fps
    Minimum frame rate : 29.412 fps
    Maximum frame rate : 30.303 fps
    Resolution : 8 bits
    Colorimetry : 4:2:0
    Scan type : Progressive
    Bits/(Pixel*Frame) : 0.090
    Stream size : 137 MiB (98%)
    Tagged date : UTC 2010-09-27 20:38:11

    Audio
    ID : 2
    Format : AAC
    Format/Info : Advanced Audio Codec
    Format version : Version 4
    Format profile : LC
    Format settings, SBR : No
    Codec ID : 40
    Duration : 3mn 25s
    Bit rate mode : Variable
    Bit rate : 128 Kbps
    Maximum bit rate : 172 Kbps
    Channel(s) : 2 channels
    Channel positions : Front: L R
    Sampling rate : 44.1 KHz
    Stream size : 3.13 MiB (2%)

    Code:
    http://www.fileserve.com/file/NEQSFjT

 

 

Posting Permissions

  • You may not post new threads
  • You may not post replies
  • You may not post attachments
  • You may not edit your posts
  •