Results 1 to 1 of 1
  1. #1
    dR Contributor www.desirulez.net
    Join Date
    Sep 2009
    Posts
    306

    Default Dabangg 2010 OrignalDvDRip X264 Esubs 410mb [KoM][Singal Link]

    Follow us on Social Media









    Dabangg 2010 OrignalDvDRip X264 Esubs 410mb [KoM][Singal Link]














    Banner
    Shree Ashtavinayak Cinevision Ltd
    Arbaaz Khan Productions

    Status
    Released

    Color
    C

    Release Date
    September 10, 2010

    Language
    Hindi

    Genre
    Social / Action

    Shooting Studios
    Filmcity
    Mehboob Studio

    Producer
    Dhillin Mehta
    Arbaaz Khan
    Malaika Arora

    Executive Producer / Co-Producer
    Manoj Chaturvedi

    Director
    Abhinav Kashyap

    Star Cast
    Salman Khan...... Chulbul Pandey
    Sonakshi Sinha...... Rajo (Introducing)
    Arbaaz Khan...... Makhanchan
    Sonu Sood...... Cheddi Singh
    Vinod Khanna...... Prajapati Pandey
    Dimple Kapadia...... Naini
    Mahesh Manjrekar...... Rajo's father
    Om Puri
    Anupam Kher
    Tinu Anand
    Mahie Gill
    Amitosh Nagpal
    Malaika Arora...... Munni

    Cassettes and CD's on
    T-Series

    Singers
    Rahat Fateh Ali Khan
    Mamta Sharma
    Aishwarya
    Sonu Nigam
    Shreya Ghoshal
    Sukhwinder Singh
    Wajid
    Master Saleem
    Shabaab Sabri
    Salman Khan

    Lyricist
    Faiz Anwar
    Lalit Pandit
    Jalees Sherwani

    Music Director
    Sajid
    Wajid
    Lalit Pandit

    Background Music
    Sandeep Shirodkar

    Cinematography
    Mahesh Limaye

    Choreography
    Farah Khan
    Raju Khan

    Action
    Vijayan Master

    Art
    Wasiq Khan

    Editor
    Pranav V Dhiwar

    Sound
    Leslie Fernandes
    Jeetender Singh

    Media Relations
    Rohini Iyer

    Story / Writer
    Dileep Shukla
    Abhinav Kashyap



    [/SIZE]



    - : Screens : -



















    More Screens Links

    Code:
     
    
    http://picturedip.com/q5k9z7bnoftz/d1.jpg.html
    http://picturedip.com/vszgvrw31cj0/d2.jpg.html
    http://picturedip.com/1alclyysddqb/d3.jpg.html
    http://picturedip.com/sv9t346wb95y/d4.jpg.html
    http://picturedip.com/06klvt5xafyw/d5.jpg.html
    http://picturedip.com/q5txvdkjo1q2/dakom.jpg.html

    Code:
    
    
    
    .. K i n g o f M o v i e   ..   P r a u d l e y p r e g a n t s ..
    
    
    Source DDR Thanks
    
    General
    
    Format                           : AVI
    Format/Info                      : Audio Video Interleave
    File size                        : 414 MiB
    Duration                         : 2h 1mn
    Overall bit rate                 : 478 Kbps
    Writing application              : MEncoder SVN-r30881(20100311-gcc4.3.3)
    Writing library                  : MPlayer
    
    Video
    ID                               : 0
    Format                           : AVC
    Format/Info                      : Advanced Video Codec
    Format profile                   : [email protected]
    Format settings, CABAC           : No
    Format settings, ReFrames        : 1 frame
    Format settings, GOP             : N=1
    Codec ID                         : avc1
    Duration                         : 2h 1mn
    Bit rate                         : 400 Kbps
    Width                            : 600 pixels
    Height                           : 256 pixels
    Display aspect ratio             : 2.35:1
    Frame rate                       : 24.975 fps
    Color space                      : YUV
    Chroma subsampling               : 4:2:0
    Bit depth                        : 8 bits
    Scan type                        : Progressive
    Bits/(Pixel*Frame)               : 0.104
    Stream size                      : 347 MiB (84%)
    Writing library                  : x264 core 80 r1378+57 6f6b50a
    
    Audio
    ID                               : 1
    Format                           : MPEG Audio
    Format version                   : Version 1
    Format profile                   : Layer 3
    Mode                             : Joint stereo
    Mode extension                   : MS Stereo
    Codec ID                         : 55
    Codec ID/Hint                    : MP3
    Duration                         : 2h 1mn
    Bit rate mode                    : Constant
    Bit rate                         : 64.0 Kbps
    Channel(s)                       : 2 channels
    Sampling rate                    : 44.1 KHz
    Stream size                      : 55.4 MiB (13%)
    Alignment                        : Aligned on interleaves
    Interleave, duration             : 26 ms (0.65 video frame)
    Interleave, preload duration     : 522 ms
    Writing library                  : LAMEUUULAME3.98
    
    
    
    
    

    Credit To Ripper King Of Movie


    - : Download Links : -






    Just Click On Singal Link Hot File

    Code:
    http://hotfile.com/dl/75928093/e986f9a/Dabangg.2010_Orignal_DvDRip_410mb_X264_King_Of_Movie.avi.html


 

 

Posting Permissions

  • You may not post new threads
  • You may not post replies
  • You may not post attachments
  • You may not edit your posts
  •