Results 1 to 3 of 3
  1. #1
    dR Founders www.desirulez.org
    Join Date
    Mar 2008
    Location
    USA
    Posts
    3,717

    T

    Default Drona 2008 ~ 1CD PDVD RIP ~ E-SUB ~ TeamRM (Best Quality + Direct)

    Follow us on Social Media







    Drona 2008 ~ 1CD PDVD RIP ~ E-SUB ~ TeamRM (Best Quality + Direct) Info:

    Video
    Quote:
    Format : MPEG-4 Visual
    Format profile : Streaming [email protected]
    Format settings, BVOP : Yes
    Format settings, QPel : No
    Format settings, GMC : No warppoints
    Format settings, Matrix : Default
    Codec ID : XVID
    Codec ID/Hint : XviD
    Duration : 2h 22mn
    Bit rate : 551 Kbps
    Width : 640 pixels
    Height : 272 pixels
    Display aspect ratio : 2.35
    Frame rate : 29.970 fps
    Resolution : 8 bits
    Colorimetry : 4:2:0
    Scan type : Progressive
    Bits/(Pixel*Frame) : 0.106
    Stream size : 559 MiB (81%)
    Writing library : XviD 1.2.0.dev47 (UTC 2006-11-01)
    Audio
    Code:
    Format : MPEG Audio
    Format version : Version 1
    Format profile : Layer 3
    Codec ID : 55
    Codec ID/Hint : MP3
    Bit rate mode : Constant
    Bit rate : 128 Kbps
    Channel(s) : 2 channels
    Sampling rate : 44.1 KHz
    Resolution : 16 bits
    Stream size : 130 MiB (19%)
    Title : mp3VTS_01_1 T01 DELAY 0ms
    Credits: Team DUS - Jay78
    Uploaded by TeamRM


    Screenshots:








    Download:
    Code:
    http://rapidshare.com/files/15073017...TeamRM.avi.001
    http://rapidshare.com/files/15073049...TeamRM.avi.002
    http://rapidshare.com/files/15073016...TeamRM.avi.003
    http://rapidshare.com/files/15073022...TeamRM.avi.004
    aDrive:
    Code:
    http://www.adrive.com/public/84fea13...4a2a7c9ab.html
    Subs:
    Code:
    http://rapidshare.com/files/150733055/Drona2008.srt



  2. #2
    SUP GURLZZ!!! www.desirulez.net
    Join Date
    Jun 2008
    Location
    US
    Posts
    1,052

    T

    Default

    thanks yo.....

    PLZ CLICK TO VIEW HIDDEN STUFF!!!

  3. #3
    Landed To DesiRulez
    Join Date
    Aug 2008
    Posts
    10

    T

    Default

    plzz provide resume support links

 

 

Posting Permissions

  • You may not post new threads
  • You may not post replies
  • You may not post attachments
  • You may not edit your posts
  •