Results 1 to 1 of 1
  1. #1
    Super Member www.desirulez.net
    Join Date
    Jul 2010
    Posts
    421

    T

    Thumbs up Sindhu Samaveli (2010) 1CD DVDRip Xvid Mp3 Sruthi Single Links

    Follow us on Social Media







    Sindhu Samaveli (2010) 1CD DVDRip Xvid Mp3 Sruthi Single Links


    Code:
    Format/Info                      : Audio Video Interleave
    Format profile                   : OpenDML
    File size                        : 692 MiB
    Duration                         : 2h 21mn
    Overall bit rate                 : 685Kbps
    Writing application              : AVI-Mux GUI 1.17.8.3, Feb 16 201019:42:50
    VideoID                               : 0
    Format                           : MPEG-4 Visual
    Format profile                   : Advanced [email protected]
    Format settings, BVOP            : Yes
    Format settings, QPel            : Yes
    Format settings, GMC             : No warppoints
    Format settings, Matrix          : Default (H.263)
    Codec ID                         : XVID
    Codec ID/Hint                    : XviD
    Duration                         : 2h 21mn
    Bit rate                         : 616 Kbps
    Width                            : 608 pixels
    Height                           : 256 pixels
    Display aspect ratio             : 2.35:1
    Frame rate                       : 23.976 fps
    Color space                      : YUV
    Chroma subsampling               : 4:2:0
    Bit depth                        : 8 bits
    Scan type                        : Progressive
    Bits/(Pixel*Frame)               : 0.165
    Stream size                      : 623 MiB (90%)
    Writing library                  : XviD1.2.1 (UTC 2008-12-04)
    AudioID                               : 1
    Format                           : MPEG Audio
    Format version                   : Version 1
    Format profile                   : Layer 3
    Codec ID                         : 55
    Codec ID/Hint                    : MP3
    Duration                         : 2h 21mn
    Bit rate mode                    : Variable
    Bit rate                         : 60.4 Kbps
    Nominal bit rate                 : 64.0 Kbps
    Channel(s)                       : 1 channel
    Sampling rate                    : 48.0 KHz
    Stream size                      : 61.0 MiB (9%)
    Alignment                        : Aligned on interleaves
    Screens:










    Download:

    200MB LINKS:

    Code:
    http://www.fileserve.com/file/vMr36Xr
    http://www.fileserve.com/file/TZHFxGK
    http://www.fileserve.com/file/ZffJq7M
    http://www.fileserve.com/file/K6ndMQv
    SINGLE LINK:

    Code:
    http://www.fileserve.com/file/GFxDB7z

 

 

Tags for this Thread

Posting Permissions

  • You may not post new threads
  • You may not post replies
  • You may not post attachments
  • You may not edit your posts
  •