Results 1 to 1 of 1
  1. #1
    dR Force!!!
    Join Date
    Mar 2010
    Sea Side

    Default Mujhse Dosti Karoge! (2002) 1/3 DVDRip XviD AC3 Esubs

    Follow us on Social Media

    Mujhse Dosti Karoge! (2002)

    1/3 DVDRip XviD AC3 Esubs

    Format : AVI
    File size : 1.45 GiB
    Duration : 2h 28mn
    Overall bit rate : 1 398 Kbps
    Source : DVD9 @ DUS
    Ripper : F i L M Y

    Format : MPEG-4 Visual
    Format profile : Streaming [email protected]
    Format settings, BVOP : Yes
    Format settings, QPel : No
    Format settings, GMC : No warppoints
    Format settings, Matrix : Default (H.263)
    Codec ID : XVID
    Codec ID/Hint : XviD
    Duration : 2h 28mn
    Bit rate : 1 265 Kbps
    Width : 688 pixels
    Height : 288 pixels
    Display aspect ratio : 2.35
    Frame rate : 23.976 fps
    Resolution : 24 bits
    Colorimetry : 4:2:0
    Scan type : Progressive
    Bits/(Pixel*Frame) : 0.266
    Stream size : 1.31 GiB (90%)

    Format : AC-3
    Format/Info : Audio Coding 3
    Codec ID : 2000
    Duration : 2h 28mn
    Bit rate mode : Constant
    Bit rate : 128 Kbps
    Channel(s) : 6 channels
    Channel positions : Front: L C R, Surround: L R, LFE
    Sampling rate : 48.0 KHz
    Stream size : 136 MiB (9%)
    Alignment : Aligned on interleaves
    Interleave, duration : 64 ms (1.54 video frames)
    Interleave, preload duration : 192 ms
    Title : Desi Unit Share


    Kunal Kohli


    Aditya Chopra (writer)
    Kunal Kohli (writer)

    Release Date:

    8 August 2002 (South Africa)


    Musical | Romance | Drama | Family


    aj, Pooja and Tina are childhood friends. While Raj has always been attracted to the vivacious Tina, he is completely unaware of the quiet Pooja's feelings for him. When Raj's family move to England to get involved in an internet business, Raj promises Tina that he will keep in touch with her and that their friendship will always be forever. However Tina disregards him and chooses not to respond to his first e-mail, in turn Pooja decides to keep in touch with him but signs under Tina's name. Fifteen years later, and their friendship has blossomed via e-mail, Raj believing that he's getting to know Tina when it's really Pooja. His family decides to go back on a holiday to India for 2 weeks, when Tina discovers the truth about Pooja's e-mails, they decide together that Tina will play along with the charade. When Raj arrives in India, he is struck by Tina's beauty but equally as struck to Pooja's personality. On a coincidence Raj eventually realizes that he had been corresponding with Pooja, and he realizes that Pooja is his true love which forces Tina and her family to accept the fact that Raj and Pooja are suitable for each other and that the two should get marry under any circumstances

    Credit To Orignal Sharer




Posting Permissions

  • You may not post new threads
  • You may not post replies
  • You may not post attachments
  • You may not edit your posts