Results 1 to 1 of 1
  1. #1
    Super Member www.desirulez.net
    Join Date
    Jul 2010
    Posts
    421

    T

    Thumbs up Vanthe Matharam[2010] 1CD CamRip XviD Single & 100mb Links

    Follow us on Social Media







    Vanthe Matharam[2010] 1CD CamRip XviD Single & 100mb Links


    Code:
    GeneralComplete name                   : Vanthe Matharam[2010] CamRip - XviD - 1CDRip - Team IST.avi
    Format                           : AVI
    Format/Info                      : Audio Video Interleave
    File size                        : 594 MiB
    Duration                         : 2h 1mn
    Overall bit rate                 : 682 Kbps
    VideoID                              : 0
    Format                           : MPEG-4 Visual
    Format profile                   : Advanced [email protected]
    Format settings, BVOP            : Yes
    Format settings, QPel            : No
    Format settings, GMC             : No warppoints
    Format settings, Matrix          : Default (H.263)
    Muxing mode                      : Packed bitstream
    Codec ID                         : XVID
    Codec ID/Hint                    : XviD
    Duration                         : 2h 1mn
    Bit rate                         : 478 Kbps
    Width                            : 608 pixels
    Height                           : 272 pixels
    Display aspect ratio             : 2.25:1
    Frame rate                       : 29.970 fps
    Color space                      : YUV
    Chroma subsampling               : 4:2:0
    Bit depth                        : 8 bitsScan type                        : Progressive
    Bits/(Pixel*Frame)               : 0.097
    Stream size                      : 416 MiB (70%)
    Writing library                  : XviD1.2.0.dev47 (UTC 2006-11-01)
    AudioID                              : 1
    Format                           : MPEG AudioFormat version                   : Version 1
    Format profile                   : Layer 3
    Mode                             : Joint stereo
    Codec ID                         : 55
    Codec ID/Hint                    : MP3
    Duration                         : 2h 1mn
    Bit rate mode                    : Constant
    Bit rate                         : 192 Kbps
    Channel(s)                       : 2 channels
    Sampling rate                    : 44.1 KHz
    Stream size                      : 167 MiB (28%)
    Alignment                        : Split accross interleaves
    Interleave, duration             : 33 ms (1.00 video frame)
    Interleave, preload duration     : 500 ms
    Screens:








    Download:

    100MB LINKS:

    Code:
    http://www.fileserve.com/file/3zpmbKY
    http://www.fileserve.com/file/98Cm2RM
    http://www.fileserve.com/file/FGQcqZy
    http://www.fileserve.com/file/ZKyHSkH
    http://www.fileserve.com/file/m2K6XBm
    http://www.fileserve.com/file/v2BMmnq
    SINGLE LINK:

    Code:
    http://www.fileserve.com/file/U5wVa3s

 

 

Tags for this Thread

Posting Permissions

  • You may not post new threads
  • You may not post replies
  • You may not post attachments
  • You may not edit your posts
  •