Results 1 to 1 of 1
  1. #1
    Super Member www.desirulez.net
    Join Date
    Jul 2010
    Posts
    421

    T

    Thumbs up Unakkaga En Kadhal (2010) Sruthi 1CD DVDRip Xvid Mp3 Resumable Links

    Follow us on Social Media







    Unakkaga En Kadhal (2010) Sruthi 1CD DVDRip Xvid Mp3 Resumable Links


    Code:
    Format                           : AVI
    Format/Info                      : Audio Video Interleave
    Format profile                   : Open
    DMLFile size                        : 692 MiB
    Duration                         : 2h 7mn
    Overall bit rate                 : 759 Kbps
    Writing application              : AVI-Mux GUI 1.17.8.3, Feb 16 201019:42:50
    VideoID                               : 0
    Format                           : MPEG-4 Visual
    Format profile                   : Advanced [email protected]
    Format settings, BVOP            : Yes
    Format settings, QPel            : Yes
    Format settings, GMC             : No warppoints
    Format settings, Matrix          : Default (H.263)
    Codec ID                         : XVID
    Codec ID/Hint                    : XviD
    Duration                         : 2h 7mn
    Bit rate                         : 691 Kbps
    Width                            : 608 pixels
    Height                           : 256 pixels
    Display aspect ratio             : 2.35:1
    Frame rate                       : 29.970 fps
    Color space                      : YUV
    Chroma subsampling               : 4:2:0
    Bit depth                        : 8 bits
    Scan type                        : Progressive
    Bits/(Pixel*Frame)               : 0.148
    Stream size                      : 630 MiB (91%)
    Writing library                  : XviD 1.2.1 (UTC 2008-12-04)
    AudioID                               : 1
    Format                           : MPEG Audio
    Format version                   : Version 1
    Format profile                   : Layer 3
    Codec ID                         : 55
    Codec ID/Hint                    : MP3
    Duration                         : 2h 7mn
    Bit rate mode                    : Variable
    Bit rate                         : 58.5 Kbps
    Nominal bit rate                 : 64.0 Kbps
    Channel(s)                       : 1 channel
    Sampling rate                    : 48.0 KHz
    Stream size                      : 53.4 MiB (8%)
    credit: team ist
    Screens:









    Download:

    100MB LINKS:

    RESUMABLE LINK:

    Code:
    http://www.6ybh-upload.com/yn761pl9s98t/Unakkaga_En_Kadhal_2010_1CD_Xvid_Mp3_Sruthi.avi.001
    http://www.6ybh-upload.com/cterpjs8ssih/Unakkaga_En_Kadhal_2010_1CD_Xvid_Mp3_Sruthi.avi.002
    http://www.6ybh-upload.com/w1ev9a0szmdn/Unakkaga_En_Kadhal_2010_1CD_Xvid_Mp3_Sruthi.avi.003
    http://www.6ybh-upload.com/t3n5z0gne4vi/Unakkaga_En_Kadhal_2010_1CD_Xvid_Mp3_Sruthi.avi.004
    http://www.6ybh-upload.com/kn1h55bdmbj6/Unakkaga_En_Kadhal_2010_1CD_Xvid_Mp3_Sruthi.avi.005
    http://www.6ybh-upload.com/yahslnzvdepv/Unakkaga_En_Kadhal_2010_1CD_Xvid_Mp3_Sruthi.avi.006
    http://www.6ybh-upload.com/nv3336rao20n/Unakkaga_En_Kadhal_2010_1CD_Xvid_Mp3_Sruthi.avi.007
    200mb links:

    Code:
    http://www.fileserve.com/file/YBeh3TX
    http://www.fileserve.com/file/xhbstnc
    http://www.fileserve.com/file/szZwsFx
    http://www.fileserve.com/file/q7rxAm9
    SINGLE LINK:

    Code:
    http://www.fileserve.com/file/RDjHDXe

 

 

Tags for this Thread

Posting Permissions

  • You may not post new threads
  • You may not post replies
  • You may not post attachments
  • You may not edit your posts
  •