Results 1 to 1 of 1
  1. #1
    dR Contributor www.desirulez.net
    Join Date
    Sep 2009
    Posts
    305

    T

    Default Once Upon A Time In Mumbaai 2010 460mb Orignal DVD.RiP XviD.MP3 [Singal Link]

    Follow us on Social Media











    Once Upon A Time In Mumbaai 2010 460mb Orignal DVD.RiP XviD.MP3 [Singal Link]












    Banner
    Balaji Motion Pictures

    Status
    Released

    Color
    C

    Release Date
    July 30, 2010

    Language
    Hindi

    Genre
    Action / Romance

    Producer
    Ekta Kapoor
    Shobha Kapoor

    Director
    Milan Luthria

    Star Cast
    Ajay Devgn...... Sultan Mirza
    Emraan Hashmi...... Shoaib Khan
    Kangna Ranaut...... Rehana
    Prachi Desai...... Mumtaz
    Randeep Hooda...... Agnel
    Gauhar Khan...... Item number
    Avtar Gill...... Home Minister
    Naved Aslam...... Patrick
    Sanjeev Wilson...... Chandru
    Mehul Bhojak...... Javed
    Ravi Khanwilkar...... Vardhan
    Amy Kingston...... Special appearance

    Cassettes and CD's on
    T-Series

    Singers
    Mika Singh
    K K
    Dominique Cerejo
    Karthik
    Sunidhi Chauhan
    Mohit Chauhan
    Rahat Fateh Ali Khan
    Tulsi Kumar

    Lyricist
    Amitabh Bhattacharya
    Nilesh Mishra
    Irshad Kamil

    Music Director
    Pritam Chakraborty

    Cinematography
    Aseem Mishra

    Choreography
    Raju Khan

    Action
    Abbas Ali Moghul

    Art
    Nitin Chandrakant Desai

    Editor
    Akiv Ali

    Screenplay
    Rajat Arora

    Sound
    Subhash Sahu

    Dialogue
    Rajat Arora

    Story / Writer
    Rajat Arora




    - : Screens : -





















    More Screens Links

    Code:
     
     
    http://picturedip.com/o6zfunpxfo78/oss1.jpg.html
    http://picturedip.com/cb9l07eyvwro/oss2.jpg.html
    http://picturedip.com/cxbacuxpk93r/oss3.jpg.html
    http://picturedip.com/30qqp12y35wm/oss4.jpg.html
    http://picturedip.com/tulcpk9rm8iv/oss5.jpg.html
    http://picturedip.com/3hu69qeretre/oss6.jpg.html
    http://picturedip.com/n88goynwapwy/oss7.jpg.html

    Code:
    
    
    .. K i n g o f M o v i e   ..   P r a u d l e y p r e g a n t s ..
    
    Ripper: King Of Movie
     
    
    Source = iBR Thanks
    Ripper...........: King Of Movie
    Size.............: 460mb
    Sample...........: 
    Audio Language...: Hindi
    Subtitles........: English
    
    
    Format                           : AVI
    Format/Info                      : Audio Video Interleave
    File size                        : 457 MiB
    Duration                         : 2h 14mn
    Overall bit rate                 : 476 Kbps
    Writing application              : MEncoder SVN-r29352(20090610-gcc4.3.3)
    Writing library                  : MPlayer
    
    Video
    ID                               : 0
    Format                           : MPEG-4 Visual
    Format profile                   : Advanced [email protected]
    Format settings, BVOP            : Yes
    Format settings, QPel            : No
    Format settings, GMC             : No warppoints
    Format settings, Matrix          : Default (H.263)
    Codec ID                         : XVID
    Codec ID/Hint                    : XviD
    Duration                         : 2h 14mn
    Bit rate                         : 400 Kbps
    Width                            : 640 pixels
    Height                           : 272 pixels
    Display aspect ratio             : 2.35:1
    Frame rate                       : 23.976 fps
    Color space                      : YUV
    Chroma subsampling               : 4:2:0
    Bit depth                        : 8 bits
    Scan type                        : Progressive
    Bits/(Pixel*Frame)               : 0.096
    Stream size                      : 384 MiB (84%)
    Writing library                  : XviD 1.2.1 (UTC 2008-12-04)
    
    Audio
    ID                               : 1
    Format                           : MPEG Audio
    Format version                   : Version 1
    Format profile                   : Layer 3
    Mode                             : Joint stereo
    Mode extension                   : MS Stereo
    Codec ID                         : 55
    Codec ID/Hint                    : MP3
    Duration                         : 2h 14mn
    Bit rate mode                    : Constant
    Bit rate                         : 64.0 Kbps
    Channel(s)                       : 2 channels
    Sampling rate                    : 44.1 KHz
    Video delay                      : 42ms
    Stream size                      : 61.5 MiB (13%)
    Alignment                        : Aligned on interleaves
    Interleave, duration             : 26 ms (0.63 video frame)
    Interleave, preload duration     : 522 ms
    Writing library                  : LAMEUUULAME3.98
    
    
    
    
    

    Credit To Ripper King Of Movie


    - : Download Links : -


    Sample



    Singal Link

    Code:
    http://hotfile.com/dl/67617440/74f4d42/O.U.A.T.Mumbaai.2010.DVDRip.460MbRip.XviD.Mp3.E.Sub.King.Of.Movie.avi.html

    E subs


    Code:
     
    http://www.fileserve.com/file/BPHZRUp/O.U.A.T.Mumbaai.2010.DVDRip.460MbRip.XviD.Mp3.E.Sub.King.Of.Movie.srt

 

 

Posting Permissions

  • You may not post new threads
  • You may not post replies
  • You may not post attachments
  • You may not edit your posts
  •