Results 1 to 1 of 1
  1. #1
    dR Contributor www.desirulez.net
    Join Date
    Sep 2009
    Posts
    305

    T

    Default Lamha : The Untold Story of Kashmir 2010 DVDRip 460mbRip Xvid Subs [Singal Link]

    Follow us on Social Media











    Lamha : The Untold Story of Kashmir 2010 DVDRip 460mbRip Xvid Subs [Singal Link]













    Banner
    G S Entertainment Pvt. Ltd.

    Status
    Released

    Color
    C

    Release Date
    July 16, 2010

    Language
    Hindi

    Genre
    Action

    Shooting Studios
    Filmcity

    Producer
    Bunty Walia
    Jaspreet Singh Walia

    Director
    Rahul Dholakia

    Star Cast
    Sanjay Dutt...... Vikram
    Bipasha Basu...... Aziza
    Kunal Kapoor...... Aatif
    Shernaz Patel...... Parveena
    Aman Verma
    Yashpal Sharma...... Rauf
    Vishwajeet Pradhan...... Daljeet
    Vipin Sharma...... Colonel Kapoor
    Yuri Suri...... Pasha
    Anupam Kher...... Haji
    Asif Basra
    Rajesh Khera...... Parvez
    Murli Sharma...... Dhruv Raina
    Jyoti Dogra...... Badi Bi
    Denzil Smith...... Brigadier Sharma
    Ehsaan Khan...... S P Khan
    Mahesh Manjrekar...... Peer Baba

    Cassettes and CD's on
    T-Series

    Singers
    Chinmaye
    Kshitij Tarey
    Arun Daga
    Mohd Irfan
    Dr. Palash Sen
    Mika Singh
    Mithoon

    Lyricist
    Sayeed Qadri
    Amitabh Varma

    Music Director
    Mithoon

    Background Music
    Sanjay Chowdhury

    Choreography
    Ahmed Khan

    Action
    Javed Eijaz

    Art
    Wasiq Khan

    Editor
    Ashmith Kunder
    Akshay Mohan

    Screenplay
    Rahul Dholakia

    Sound
    Baylon Fonseca

    Dialogue
    Ashwath Bhatt

    Costume
    Shabina Khan
    Shahnaz Vahanvaty
    Aki Narula
    Rocky S

    Promos
    Bunty Nagi

    Publicity Designs
    Rahul Nanda
    Himanshu Nanda





    - : Screens : -



















    More Screens Links

    Code:
     
    
    http://picturedip.com/fp2sq5mtscp5/ss1.jpg.html
    http://picturedip.com/szqdvw2xin1v/ss2.jpg.html
    http://picturedip.com/g50cm8r6mzql/ss3.jpg.html
    http://picturedip.com/emzbrxmaekzq/ss4.jpg.html
    http://picturedip.com/fsltw4r52cj3/ss5.jpg.html
    http://picturedip.com/5g0nm2cy1t6e/ss6.jpg.html

    Code:
    
    
    .. K i n g o f M o v i e   ..   P r a u d l e y p r e g a n t s ..
    
    Source = DDR Thanks
    Ripper...........: King Of Movie
    Size.............: 460mb
    Sample...........: 
    Audio Language...: Hindi
    Subtitles........: English
    
    
    
    
    General
    
    Format                           : AVI
    Format/Info                      : Audio Video Interleave
    File size                        : 464 MiB
    Duration                         : 1h 56mn
    Overall bit rate                 : 558 Kbps
    Writing application              : MEncoder SVN-r29352(20090610-gcc4.3.3)
    Writing library                  : MPlayer
    
    Video
    ID                               : 0
    Format                           : MPEG-4 Visual
    Format profile                   : Advanced [email protected]
    Format settings, BVOP            : Yes
    Format settings, QPel            : No
    Format settings, GMC             : No warppoints
    Format settings, Matrix          : Default (H.263)
    Codec ID                         : XVID
    Codec ID/Hint                    : XviD
    Duration                         : 1h 56mn
    Bit rate                         : 450 Kbps
    Width                            : 656 pixels
    Height                           : 288 pixels
    Display aspect ratio             : 2.25:1
    Frame rate                       : 23.976 fps
    Color space                      : YUV
    Chroma subsampling               : 4:2:0
    Bit depth                        : 8 bits
    Scan type                        : Progressive
    Bits/(Pixel*Frame)               : 0.099
    Stream size                      : 374 MiB (81%)
    Writing library                  : XviD 1.2.1 (UTC 2008-12-04)
    
    Audio
    ID                               : 1
    Format                           : MPEG Audio
    Format version                   : Version 1
    Format profile                   : Layer 3
    Mode                             : Joint stereo
    Codec ID                         : 55
    Codec ID/Hint                    : MP3
    Duration                         : 1h 56mn
    Bit rate mode                    : Constant
    Bit rate                         : 96.0 Kbps
    Channel(s)                       : 2 channels
    Sampling rate                    : 44.1 KHz
    Video delay                      : 42ms
    Stream size                      : 79.8 MiB (17%)
    Alignment                        : Aligned on interleaves
    Interleave, duration             : 26 ms (0.63 video frame)
    Interleave, preload duration     : 522 ms
    Writing library                  : LAME3.98
    
    
    
    
    
    
    
    

    Credit To Ripper King Of Movie


    - : Download Links : -


    Sample





    Just Click On Singal 700 Mb Link Hot

    Code:
    http://hotfile.com/dl/67617831/320549d/Lamha.The.Untold.Story.of.Kashmir.2010.DVDRip.460mbRip.Xvid.E.Subs.King.Of.Movie.avi.htmlg.Of.Movie.avi.html

    Sub

    Code:
    http://www.fileserve.com/file/vf3uyTc/Lamha.The.Untold.Story.of.Kashmir.2010.DVDRip.460mbRip.Xvid.E.Subs.King.Of.Movie.srt


 

 

Posting Permissions

  • You may not post new threads
  • You may not post replies
  • You may not post attachments
  • You may not edit your posts
  •