Results 1 to 2 of 2
  1. #1
    Aka Zafar JmD www.desirulez.net
    Join Date
    Aug 2010
    Location
    Sea Side
    Posts
    776

    T

    Default CITY HUNTER DVDRIP (x264) (IN HINDI)

    Follow us on Social Media








    FILE INFORMATION


    Quote:
    General
    Complete name : City Hunter hindi.avi
    Format : AVI
    Format/Info : Audio Video Interleave
    File size : 589 MiB
    Duration : 1h 19mn
    Overall bit rate : 1 038 Kbps

    Video
    Format : AVC
    Format/Info : Advanced Video Codec
    Codec ID : H264
    Duration : 1h 19mn
    Bit rate : 900 Kbps
    Width : 704 pixels
    Height : 544 pixels
    Display aspect ratio : 2.35:1
    Frame rate mode : Variable
    Frame rate : 25.000 fps
    Bit depth : 8 bits
    Scan type : MBAFF
    Bits/(Pixel*Frame) : 0.094
    Stream size : 510 MiB (87%)
    Writing library : x264 core 93 r1542 5b86182

    Audio
    ID : 1
    Format : AC-3
    Format/Info : Audio Coding 3
    Duration : 1h 19mn
    Bit rate mode : Constant
    Bit rate : 128 Kbps
    Channel(s) : 2 channels
    Channel positions : Front: L R
    Sampling rate : 44.1 KHz
    Bit depth : 16 bits
    Stream size : 72.5 MiB (12%)
















  2. #2
    New Arrivals
    Join Date
    Sep 2010
    Posts
    9

    T

    Default

    very funny movie thanks for upload

 

 

Tags for this Thread

Posting Permissions

  • You may not post new threads
  • You may not post replies
  • You may not post attachments
  • You may not edit your posts
  •