Results 1 to 2 of 2
  1. #1
    Super Member www.desirulez.net
    Join Date
    Jul 2010
    Posts
    421

    Thumbs up Naan Mahaan Alla [2010]TeleSynced - Source 2 - XviD Resumable Links

    Follow us on Social Media





    Naan Mahaan Alla [2010]TeleSynced - Source 2 - XviD Resumable Links


    Code:
    General
    Complete name                    :Naan Mahaan Alla [2010]TeleSynced - Source 2 - XviD - Team IST.avi.avi
    Format                           : AVI
    Format/Info                      : Audio Video Interleave
    File size                        : 983 MiB
    Duration                         : 2h 4mn
    Overall bit rate                 : 1 099 Kbps
    
    
    Video
    Format                           : MPEG-4 Visual
    Format profile                   : [email protected]
    Format settings, BVOP            : No
    Format settings, QPel            : No
    Format settings, GMC             : No warppoints
    Format settings, Matrix          : Default (H.263)
    Codec ID                         : XVID
    Codec ID/Hint                    : XviD
    Duration                         : 2h 4mn
    Bit rate                         : 959 Kbps
    Width                            : 640 pixels
    Height                           : 288 pixels
    Display aspect ratio             : 2.222
    Frame rate                       : 29.970 fps
    Resolution                       : 24 bits
    Colorimetry                      : 4:2:0
    Scan type                        : Progressive
    Bits/(Pixel*Frame)               : 0.174
    Stream size                      : 858 MiB (87%)
    Writing library                  : XviD 1.1.2 (UTC 2006-11-01)
    
    Audio
    Format                           : MPEG Audio
    Format version                   : Version 1
    Format profile                   : Layer 3
    Codec ID                         : 55
    Codec ID/Hint                    : MP3
    Duration                         : 2h 4mn
    Bit rate mode                    : Constant
    Bit rate                         : 128 Kbps
    Channel(s)                       : 2 channels
    Sampling rate                    : 48.0 KHz
    Resolution                       : 16 bits
    Stream size                      : 114 MiB (12%)
    Alignment                        : Split accross interleaves
    Interleave, duration             : 33 ms (1.00 video frame)
    Interleave, preload duration     : 500 ms
    Writing library                  : LAME3.98r
    Encoding settings                : -m j -V 4 -q 7 -lowpass 17 -b 128
    Credit: musickingz
    Uploader: Me...!
    Screens:











    Download:

    100MB LINKS:

    RESUMABLE LINK:

    Code:
    http://www.filestab.com/g69urp7276op/Naan_Mahaan_Alla_2010_TeleSynced_-_Source_2_-_XviD.part01.rar.html
    http://www.filestab.com/72zckwtixtsn/Naan_Mahaan_Alla_2010_TeleSynced_-_Source_2_-_XviD.part02.rar.html
    http://www.filestab.com/8lz08781jrng/Naan_Mahaan_Alla_2010_TeleSynced_-_Source_2_-_XviD.part03.rar.html
    http://www.filestab.com/e2r32z9z6bf7/Naan_Mahaan_Alla_2010_TeleSynced_-_Source_2_-_XviD.part04.rar.html
    http://www.filestab.com/voyqz5kedosd/Naan_Mahaan_Alla_2010_TeleSynced_-_Source_2_-_XviD.part05.rar.html
    http://www.filestab.com/heax9ecqtt4o/Naan_Mahaan_Alla_2010_TeleSynced_-_Source_2_-_XviD.part06.rar.html
    http://www.filestab.com/70bm65vkiszv/Naan_Mahaan_Alla_2010_TeleSynced_-_Source_2_-_XviD.part07.rar.html
    http://www.filestab.com/14k5ggu14d2t/Naan_Mahaan_Alla_2010_TeleSynced_-_Source_2_-_XviD.part08.rar.html
    http://www.filestab.com/su4u2levuom4/Naan_Mahaan_Alla_2010_TeleSynced_-_Source_2_-_XviD.part09.rar.html
    http://www.filestab.com/65ixplcef744/Naan_Mahaan_Alla_2010_TeleSynced_-_Source_2_-_XviD.part10.rar.html
    200MB LINKS:

    Code:
    http://www.fileserve.com/file/sCx6w6E
    http://www.fileserve.com/file/wPJDeVh
    http://www.fileserve.com/file/ydMFXE4
    http://www.fileserve.com/file/egzANnr
    http://www.fileserve.com/file/e7rr72Q
    SINGLE LINK:

    Code:
    http://www.fileserve.com/file/QsqB2Tm
    Code:
    http://www.filestab.com/xk4e12zzcngp/Naan_Mahaan_Alla_2010_TeleSynced_-_Source_2_-_XviD.avi.html
    Last edited by Villu; 08-25-2010 at 05:55 PM.

  2. #2
    Super Member www.desirulez.net
    Join Date
    Jul 2010
    Posts
    421

    Default

    Updated

 

 

Tags for this Thread

Posting Permissions

  • You may not post new threads
  • You may not post replies
  • You may not post attachments
  • You may not edit your posts
  •