Results 1 to 2 of 2
  1. #1
    Runner Up - Admins Awards www.desirulez.net
    Join Date
    Dec 2009
    Posts
    24,894

    T

    Default WAR..2007..JET LI*480p*BluRay*Rip*Hindi*Dubbed

    Follow us on Social Media














    Code:
     
    IMDB.....: War (2007)
    Cast......: Jet Li, Jason Statham And Others....
    Genre.....: Action | Crime | Thriller 
    Video Source :- English Blu ray Disc
    Audio Source :- Hindi Dvd disc 
    
    General
    
    Format                          : Matroska
    File size                        : 573 MiB
    Duration                        : 1h 38mn
    Overall bit rate                : 811 Kbps
    
    Video
    ID                              : 1
    Format                          : AVC
    Format/Info                      : Advanced Video Codec
    Format profile                  : [email protected]
    Format settings, CABAC          : Yes
    Format settings, ReFrames        : 4 frames
    Duration                        : 1h 38mn
    Bit rate                        : 667 Kbps
    Width                            : 720 pixels
    Height                          : 304 pixels
    Display aspect ratio            : 2.35:1
    Frame rate                      : 25.000 fps
    Original frame rate              : 23.976 fps
    Resolution                      : 8 bits
    Colorimetry                      : 4:2:0
    Scan type                        : Progressive
    Bits/(Pixel*Frame)              : 0.122
    Stream size                      : 471 MiB (82%)
    Title                            : BLU RAY VIDEO 
    Audio
    ID                              : 2
    Format                          : AC-3
    Format/Info                      : Audio Coding 3
    Format_Settings_ModeExtension    : CM (complete main)
    Codec ID                        : A_AC3
    Duration                        : 1h 38mn
    Bit rate mode                    : Constant
    Bit rate                        : 128 Kbps
    Channel(s)                      : 2 channels
    Channel positions                : Front: L R
    Sampling rate                    : 48.0 KHz
    Video delay                      : 32ms
    Stream size                      : 90.4 MiB (16%)
    Title                            : HINDI AUDIO BY ARIHANT
    Language                        : Hindi















    Code:
    http://www.megaupload.com/?d=E3WOS8NK
    http://www.megaupload.com/?d=GZAH4GFU
    http://www.megaupload.com/?d=LLBD9L4K
    http://www.megaupload.com/?d=5DW3OAT3

    Code:
    http://www.fileserve.com/file/TywWHuk
    http://www.fileserve.com/file/cyagSNr
    Code:
    http://cramit.in/nsbwz0ek73ql
    http://cramit.in/v78yklh38qjl
    http://cramit.in/a2k2hbwtqkwk
    http://cramit.in/p56yt1fvbs29
    ...being a human...



  2. #2
    Aka Zafar JmD www.desirulez.net
    Join Date
    Aug 2010
    Location
    Sea Side
    Posts
    776

    T

    Default

    thanks alot for this movie........

 

 

Posting Permissions

  • You may not post new threads
  • You may not post replies
  • You may not post attachments
  • You may not edit your posts
  •