Results 1 to 2 of 2
  1. #1
    Coolbie www.desirulez.net
    Join Date
    Jul 2010
    Location
    Jithy jaga Labby
    Posts
    313

    Default Predators (2010) (Hindi Dubbed)

    Follow us on Social Media









    Code:
    General
    Complete name                    : PREDATORS (HINDI).mpg
    Format                           : MPEG-PS
    File size                        : 512 MiB
    Duration                         : 1h 41mn
    Overall bit rate                 : 709 Kbps
    
    Video
    ID                               : 224 (0xE0)
    Format                           : MPEG Video
    Format version                   : Version 2
    Format settings, BVOP            : Yes
    Format settings, Matrix          : Default
    Duration                         : 1h 41mn
    Bit rate mode                    : Variable
    Bit rate                         : 600 Kbps
    Width                            : 352 pixels
    Height                           : 288 pixels
    Display aspect ratio             : 1.222
    Frame rate                       : 25.000 fps
    Standard                         : PAL
    Color space                      : YUV
    Bit depth                        : 8 bits
    Scan type                        : Progressive
    Bits/(Pixel*Frame)               : 0.237
    Stream size                      : 456 MiB (89%)
    
    Audio
    ID                               : 192 (0xC0)
    Format                           : MPEG Audio
    Format version                   : Version 1
    Format profile                   : Layer 2
    Duration                         : 1h 41mn
    Bit rate mode                    : Constant
    Bit rate                         : 64.0 Kbps
    Channel(s)                       : 2 channels
    Sampling rate                    : 48.0 KHz
    Video delay                      : 24ms
    Stream size                      : 46.3 MiB (9%)



    Code:
    http://www.imdb.com/title/tt1424381/

    Code:
    http://hotfile.com/dl/61997961/7f75232/PREDATORS__HINDI_FINALSAMI.mpg.part1.rar.html
    http://hotfile.com/dl/61998526/07f1321/PREDATORS__HINDI_FINALSAMI.mpg.part2.rar.html
    http://hotfile.com/dl/61997664/5416360/PREDATORS__HINDI_FINALSAMI.mpg.part3.rar.html
    http://hotfile.com/dl/61998227/c784454/PREDATORS__HINDI_FINALSAMI.mpg.part4.rar.html
    http://hotfile.com/dl/61997484/9804ea5/PREDATORS__HINDI_FINALSAMI.mpg.part5.rar.html
    http://hotfile.com/dl/61998489/ab3e281/PREDATORS__HINDI_FINALSAMI.mpg.part6.rar.html
    pass:-
    Code:
    finalsami

  2. #2
    Aka Zafar JmD www.desirulez.net
    Join Date
    Aug 2010
    Location
    Sea Side
    Posts
    772

    Default

    thanks

 

 

Posting Permissions

  • You may not post new threads
  • You may not post replies
  • You may not post attachments
  • You may not edit your posts
  •