Results 1 to 1 of 1
  1. #1
    Super Member www.desirulez.net
    Join Date
    Jul 2010
    Posts
    421

    T

    Arrow [HQ -TC] DEVALEELAI (2010) XviD 1CD MP3 Single Resumable Link

    Follow us on Social Media







    [HQ -TC] DEVALEELAI (2010) XviD 1CD MP3 Single Resumable Link


    Code:
    VideoID                               : 0
    Format                           : MPEG-4 Visual
    Format profile                   : Advanced [email protected]
    Format settings, BVOP            : Yes
    Format settings, QPel            : No
    Format settings, GMC             : No warppoints
    Format settings, Matrix          : Custom
    Codec ID                         : XVID
    Codec ID/Hint                    : XviD
    Duration                         : 1h 39mn
    Bit rate                         : 908 Kbps
    Width                            : 592 pixels
    Height                           : 336 pixels
    Display aspect ratio             : 16:9
    Frame rate                       : 29.970 fps
    Color space                      : YUV
    Chroma subsampling               : 4:2:0
    Bit depth                        : 8 bits
    Scan type                        : Progressive
    Bits/(Pixel*Frame)               : 0.152
    Stream size                      : 646 MiB (92%)
    AudioID                               : 1
    Format                           : MPEG Audio
    Format version                   : Version 2
    Format profile                   : Layer 3
    Mode                             : Joint stereo
    Mode extension                   : MS Stereo
    Codec ID                         : 55
    Codec ID/Hint                    : MP3
    Duration                         : 3h 18mn
    Bit rate mode                    : Variable
    Bit rate                         : 60.3
    Nominal bit rate                 : 64.0 Kbps
    Channel(s)                       : 2 channels
    Sampling rate                    : 24.0 KHz
    Stream size                      : 42.9 MiB (6%)Credit______[TR]
    Screens:








    Download:

    Code:
    http://www.midupload.com/ki6owhh8h11u

 

 

Posting Permissions

  • You may not post new threads
  • You may not post replies
  • You may not post attachments
  • You may not edit your posts
  •