Results 1 to 1 of 1
  1. #1
    dR Founders www.desirulez.org
    Join Date
    Mar 2008
    Location
    USA
    Posts
    3,717

    T

    Default A Wednesday (2008) 1CD PreDVDRip (Hight Quality) + Direct Link By ~Team ZFP~ Rip i

    Follow us on Social Media







    A Wednesday (2008) 1CD PreDVDRip (Hight Quality) + Direct Link By ~Team ZFP~

    Rip information
    ------------------------
    Code:
    Format : AVI
    Format/Info : Audio Video Interleave
    Format profile : OpenDML
    File size : 699 MiB
    Duration : 1h 35mn
    Overal bit rate : 1021 Kbps
    Writing application : AVI-Mux GUI 1.17.7, Aug 8 2006 20:59:17

    Video
    Format : MPEG-4 Visual
    Format profile : Streaming [email protected]
    Format settings, BVOP : Yes
    Format settings, QPel : No
    Format settings, GMC : No warppoints
    Format settings, Matrix : Default
    Codec ID : XVID
    Codec ID/Hint : XviD
    Duration : 1h 35mn
    Bit rate : 823 Kbps
    Width : 640 pixels
    Height : 272 pixels
    Display aspect ratio : 2.35
    Frame rate : 23.976 fps
    Resolution : 8 bits
    Colorimetry : 4:2:0
    Scan type : Progressive
    Bits/(Pixel*Frame) : 0.197
    Stream size : 564 MiB (81%)
    Writing library : XviD 1.2.0.dev47 (UTC 2006-11-01)

    Audio
    Format : AC-3
    Format/Info : Audio Coding 3
    Codec ID : 2000
    Bit rate mode : Constant
    Bit rate : 192 Kbps
    Channel(s) : 2 channels
    Channel positions : L R
    Sampling rate : 48.0 KHz
    Stream size : 131 MiB (19%)
    Title : VTS_01_1 T01 2_0ch 192Kbps DELAY 0ms

    Source................... ............: PDVD5 @ wasp
    Ripper................... ............: Jay78 [Team DUS]
    Posted By....................... .....: TEAM ZFP

    ScreenShots:





















    Download

    Code:
    http://rapidshare.com/files/14294248...AM-ZFP.avi.001
    http://rapidshare.com/files/14294214...AM-ZFP.avi.002
    http://rapidshare.com/files/14294215...AM-ZFP.avi.003
    http://rapidshare.com/files/14294143...AM-ZFP.avi.004
    Direct Link with Resume Support

    Code:
    http://upit.to/file:5c1f07c021/A.wed...y.TEAM-ZFP.avi
    Code:
    http://bitroad.net/download/570e6c28...M-ZFP.avi.html



 

 

Posting Permissions

  • You may not post new threads
  • You may not post replies
  • You may not post attachments
  • You may not edit your posts
  •