Results 1 to 1 of 1
  1. #1
    dR Contributor www.desirulez.net
    Join Date
    Sep 2009
    Posts
    305

    T

    Default God Mother 1999 1CD OrignalDVDRip XviD AC3 [Singal Link]

    Follow us on Social Media











    God Mother 1999 1CD OrignalDVDRip XviD AC3 [Singal Link]








    Banner
    Gramco Films

    Status
    Released

    Color
    C

    Release Date
    September 3, 1999

    Genre
    Crime / Musical / Thriller / Drama

    Director
    Vinay Shukla

    Star Cast
    Shabana Azmi...... Rambhi
    Milind Gunaji...... Veeram
    Nirmal Pandey...... Jakhra
    Govind Namdeo...... Kesubhai
    Raima Sen...... Sejal
    Sharman Joshi...... Karsan
    Ashwin Kumar...... Asad
    Anoop Soni...... Meru
    Pratima Kazmi...... Dai
    Nishant...... Child Karsan
    Seema Bhargava...... Shanti (Veeram's sister-in-law) 472,082
    Ravi Kale...... Nagajan (policeman)
    Sameer (1)...... Gigan
    Gagan Gupta...... Meru's friend

    Cassettes and CD's on
    Saregama-HMV

    Background Music
    Vishal Bhardwaj

    Cinematography
    Rajan Kothari

    Choreography
    Bhushan Lakhandri

    Action
    Shahid Ali

    Art
    Rajat Poddar
    Prasad Phadke

    Editor
    Renu Saluja

    Screenplay
    Vinay Shukla

    Sound
    Narendra Singh
    K J Singh

    Dialogue
    Vinay Shukla

    Costume
    Mandira Shukla

    Story / Writer
    Vinay Shukla

    National Film Awards

    * National Film Award for Best Music Direction: Vishal Bharadwaj
    * National Film Award for Best Editing: Renu Saluja
    * National Film Award for Best Actress: Shabana Azmi
    * National Film Award for Best Male Playback Singer: Sanjeev Abhyankar
    * National Film Award for Best Lyrics: Javed Akhtar

    Filmfare Awards

    * Filmfare Best Story Award: Vinay Shukla

    Zee Cine Awards

    * Zee Cine Awards: Best Costumes: Mandira Shukla

    IIFA Awards

    * IIFA Best Background Score Award: Vishal Dadlani









    - : Screens : -







    More Screens





    Code:
      http://picturedip.com/kurlo48pbj2d/GodMotherKoM.jpg




    - : Info : -


    Code:
    
    
    .. K i n g o f M o v i e   ..   P r a u d l e y p r e g a n t s ...
    
    Format : AVI
    Format/Info : Audio Video Interleave
    Format profile : OpenDML
    File size : 722 MiB
    Duration : 2h 7mn
    Overall bit rate : 794 Kbps
    Writing application : AVI-Mux GUI 1.17.8.3, Feb 16 201019:42:50
    
    Video
    ID : 0
    Format : MPEG-4 Visual
    Format profile : Advanced [email protected]
    Format settings, BVOP : Yes
    Format settings, QPel : Yes
    Format settings, GMC : No warppoints
    Format settings, Matrix : Default (H.263)
    Codec ID : XVID
    Codec ID/Hint : XviD
    Duration : 2h 7mn
    Bit rate : 661 Kbps
    Width : 528 pixels
    Height : 272 pixels
    Display aspect ratio : 1.941
    Frame rate : 23.976 fps
    Resolution : 8 bits
    Colorimetry : 4:2:0
    Scan type : Progressive
    Bits/(Pixel*Frame) : 0.192
    Stream size : 600 MiB (83%)
    Writing library : XviD 1.2.1 (UTC 2008-12-04)
    
    Audio
    ID : 1
    Format : AC-3
    Format/Info : Audio Coding 3
    Codec ID : 2000
    Duration : 2h 7mn
    Bit rate mode : Constant
    Bit rate : 128 Kbps
    Channel(s) : 2 channels
    Channel positions : L R
    Sampling rate : 48.0 KHz
    Stream size : 116 MiB (16%)
    Alignment : Aligned on interleaves
    Interleave, duration : 64 ms (1.53 video frames)
    Interleave, preload duration : 192 ms 
    
    
                                                     
    

    Credit To Orignal Ripper baba





    - : Download Links : -






    HotFile Singal Link

    Code:
     
    
    http://hotfile.com/dl/57835912/8049410/God.Mother.1999.1CD.OrignalDVDRip.XviD.AC3.King.Of.Movie.avi.html


    Uploading Singal Link

    Code:
     
    
    http://uploading.com/files/e9c7c47e/God.Mother.1999.1CD.OrignalDVDRip.XviD.AC3.King.Of.Movie.avi/




 

 

Posting Permissions

  • You may not post new threads
  • You may not post replies
  • You may not post attachments
  • You may not edit your posts
  •