Results 1 to 1 of 1
  1. #1
    dR Contributor www.desirulez.net
    Join Date
    Mar 2010
    Posts
    2,245

    T

    Smile Garam Masala (2005) DVDRip 1CDRip Xvid Mp3

    Follow us on Social Media







    Garam Masala (2005) - DVDRip - 1CDRip - Xvid - Mp3


















    Format : AVI
    Format/Info : Audio Video Interleave
    File size : 698 MiB
    Duration : 2h 26mn
    Overall bit rate : 666 Kbps
    Writing library : MPlayer

    Video
    Format : MPEG-4 Visual
    Format profile : Streaming [email protected]
    Format settings, BVOP : Yes
    Format settings, QPel : No
    Format settings, GMC : No warppoints
    Format settings, Matrix : Default
    Codec ID : XVID
    Codec ID/Hint : XviD
    Duration : 2h 26mn
    Bit rate : 607 Kbps
    Width : 624 pixels
    Height : 272 pixels
    Display aspect ratio : 2.25
    Frame rate : 23.976 fps
    Resolution : 24 bits
    Colorimetry : 4:2:0
    Scan type : Progressive
    Bits/(Pixel*Frame) : 0.149
    Stream size : 636 MiB (91%)
    Writing library : XviD 1.2.1 (UTC 2008-12-04)

    Audio
    Format : MPEG Audio
    Format version : Version 2
    Format profile : Layer 3
    Codec ID : 55
    Codec ID/Hint : MP3
    Duration : 2h 26mn
    Bit rate mode : Variable
    Bit rate : 47.5 Kbps
    Minimum bit rate : 48.0 Kbps
    Channel(s) : 2 channels
    Sampling rate : 22.05 KHz
    Resolution : 16 bits
    Stream size : 49.8 MiB (7%)
    Alignment : Aligned on interleaves
    Interleave, duration : 26 ms (0.63 video frame)
    Interleave, preload duration : 118 ms
    Writing library : LAME3.98r
    Encoding settings : ABR




    Credit To Orignal Sharer


    Code:
    http://rapidshare.com/files/392803594/Garam_Masala__2005__-_DVDRip_-_1CDRip_-_Xvid_-_Mp3.By.Kamran444.avi.001
    http://rapidshare.com/files/392803635/Garam_Masala__2005__-_DVDRip_-_1CDRip_-_Xvid_-_Mp3.By.Kamran444.avi.002
    http://rapidshare.com/files/392803617/Garam_Masala__2005__-_DVDRip_-_1CDRip_-_Xvid_-_Mp3.By.Kamran444.avi.003
    http://rapidshare.com/files/392803630/Garam_Masala__2005__-_DVDRip_-_1CDRip_-_Xvid_-_Mp3.By.Kamran444.avi.004
    http://rapidshare.com/files/392803608/Garam_Masala__2005__-_DVDRip_-_1CDRip_-_Xvid_-_Mp3.By.Kamran444.avi.005
    http://rapidshare.com/files/392804032/Garam_Masala__2005__-_DVDRip_-_1CDRip_-_Xvid_-_Mp3.By.Kamran444.avi.006
    http://rapidshare.com/files/392804059/Garam_Masala__2005__-_DVDRip_-_1CDRip_-_Xvid_-_Mp3.By.Kamran444.avi.007
    http://rapidshare.com/files/392803874/Garam_Masala__2005__-_DVDRip_-_1CDRip_-_Xvid_-_Mp3.By.Kamran444.avi.008

 

 

Posting Permissions

  • You may not post new threads
  • You may not post replies
  • You may not post attachments
  • You may not edit your posts
  •