Results 1 to 1 of 1
  1. #1
    Administrators www.desirulez.net
    Join Date
    Mar 2010
    Location
    Sea Side
    Posts
    9,872

    T

    Default Bumm Bumm Bole (2010) DVDSCR Rip XviD Subs 1CD

    Follow us on Social Media













    Bumm Bumm Bole |2010| 1CD*SCR-RIP|*Multi Subs*

    Code:
    Format                           : Matroska
    File size                        : 709 MiB
    Duration                         : 2h 2mn
    Overall bit rate                 : 808 Kbps
    Encoded date                     : UTC 2010-05-16 18:14:40
    Writing application              : mkvmerge v3.2.0 ('Beginnings') built on Feb 12 2010 16:46:17
    Writing library                  : libebml v0.7.9 + libmatroska v0.8.1
    
    Video
    ID                               : 1
    Format                           : AVC
    Format/Info                      : Advanced Video Codec
    Format profile                   : [email protected]
    Format settings, CABAC           : Yes
    Format settings, ReFrames        : 3 frames
    Muxing mode                      : Container [email protected]
    Codec ID                         : V_MPEG4/ISO/AVC
    Duration                         : 2h 2mn
    Bit rate                         : 665 Kbps
    Width                            : 656 pixels
    Height                           : 272 pixels
    Display aspect ratio             : 2.40:1
    Frame rate                       : 23.976 fps
    Resolution                       : 8 bits
    Colorimetry                      : 4:2:0
    Scan type                        : Progressive
    Bits/(Pixel*Frame)               : 0.155
    Stream size                      : 583 MiB (82%)
    Writing library                  : x264 core 80 r1376M 3feaec2
    Encoding settings                : cabac=1 / ref=3 / deblock=1:0:0 / analyse=0x3:0x113 / me=hex / subme=7 / psy=1 / psy_rd=1.0:0.0 / mixed_ref=1 / me_range=16 / chroma_me=1 / trellis=1 / 8x8dct=1 / cqm=0 / deadzone=21,11 / fast_pskip=1 / chroma_qp_offset=-2 / threads=6 / sliced_threads=0 / nr=0 / decimate=1 / mbaff=0 / constrained_intra=0 / bframes=3 / b_pyramid=0 / b_adapt=1 / b_bias=0 / direct=1 / wpredb=1 / wpredp=2 / keyint=250 / keyint_min=25 / scenecut=40 / rc_lookahead=40 / rc=abr / mbtree=1 / bitrate=665 / ratetol=1.0 / qcomp=0.60 / qpmin=10 / qpmax=51 / qpstep=4 / ip_ratio=1.40 / aq=1:1.00
    Language                         : English
    
    Audio
    ID                               : 2
    Format                           : AC-3
    Format/Info                      : Audio Coding 3
    Format_Settings_ModeExtension    : CM (complete main)
    Codec ID                         : A_AC3
    Duration                         : 2h 2mn
    Bit rate mode                    : Constant
    Bit rate                         : 128 Kbps
    Channel(s)                       : 2 channels
    Channel positions                : Front: L R
    Sampling rate                    : 48.0 KHz
    Stream size                      : 112 MiB (16%)











    Code:
    http://rapidshare.com/files/388247516/BBB.2010.DVDSCR.XviD.Subs.part1.rar
    http://rapidshare.com/files/388247413/BBB.2010.DVDSCR.XviD.Subs.part2.rar
    http://rapidshare.com/files/388247568/BBB.2010.DVDSCR.XviD.Subs.part3.rar
    http://rapidshare.com/files/388247357/BBB.2010.DVDSCR.XviD.Subs.part4.rar
    HF
    Code:
    http://hotfile.com/dl/43308909/5810aff/BBB.2010.DVDSCR.XviD.Subs.part1.rar.html
    http://hotfile.com/dl/43309069/531c83f/BBB.2010.DVDSCR.XviD.Subs.part2.rar.html
    http://hotfile.com/dl/43309138/e1659bb/BBB.2010.DVDSCR.XviD.Subs.part3.rar.html
    http://hotfile.com/dl/43309421/6725474/BBB.2010.DVDSCR.XviD.Subs.part4.rar.html
    Last edited by dR Angel; 05-17-2010 at 03:30 PM.

 

 

Posting Permissions

  • You may not post new threads
  • You may not post replies
  • You may not post attachments
  • You may not edit your posts
  •