Results 1 to 1 of 1
  1. #1
    dR Contributor www.desirulez.net
    Join Date
    Sep 2009
    Posts
    305

    T

    Default Badmaash Company (2010) - EU*PDVDRip - 1CDRip - XviD - ESubs - Mp3

    Follow us on Social Media











    Badmaash Company (2010) - EU*PDVDRip - 1CDRip - XviD - ESubs - Mp3

















    Click TO Enlarg Orignal Wallpapers






    Banner
    Yash Raj Films

    Status
    Released

    Color
    C

    Release Date
    May 7, 2010

    Language
    Hindi

    Genre
    Social / Drama

    Producer
    Yash Chopra
    Aditya Chopra

    Executive Producer / Co-Producer
    Aashish Singh

    Director
    Parmeet Sethi

    Star Cast
    Shahid Kapoor...... Karan
    Anushka Sharma...... Bulbul
    Meiyang Chang...... Zing
    Vir Das...... Chandu
    Anupam Kher
    Kiran Juneja
    Pawan Malhotra
    Jameel Khan

    Cassettes and CD's on
    YRF Music

    Singers
    K K
    Mohit Chauhan
    Krishna
    Rahat Fateh Ali Khan
    Benny Dayal

    Lyricist
    Anvita Dutt Guptan

    Music Director
    Pritam Chakraborty

    Background Music
    Julius Packiam

    Cinematography
    Sanjay Kapoor (1)

    Choreography
    Ahmed Khan

    Editor
    Ritesh Soni

    Screenplay
    Parmeet Sethi

    Sound
    Dwarak Warrier
    Debasish Mishra

    Dialogue
    Parmeet Sethi

    Costume
    Mamta Anand
    Ameira Punvan

    Publicity Designs
    Fayyaz Badruddin

    Story / Writer
    Parmeet Sethi





















    More Screens Links

    Code:
    
    
    http://www.imuploader.com/images/df458nf4r0ilahcnuskh.jpg
    http://www.imuploader.com/images/yawlw9vu2elfjqh9cjbf.jpg
    http://www.imuploader.com/images/54tjl14v32nqzxj7xvbs.jpg
    http://www.imuploader.com/images/iuoxsu012mfithrhr2y.jpg
    http://www.imuploader.com/images/dx0cxlb7owe8pd0d8jjf.jpg
    http://www.imuploader.com/images/ogsywaafn0ktsbfwndag.jpg
    http://www.imuploader.com/images/zb1ji0fktz2vhpif1dy.jpg
    http://www.imuploader.com/images/ipeq9swwyi4hvpvjyt4.jpg
    http://www.imuploader.com/images/lotxvjjtz87n0475snz.jpg
    http://www.imuploader.com/images/bsztu55tdsnv3dommy0z.jpg
    http://www.imuploader.com/images/bl77d905lsooebyrp88.jpg
    http://www.imuploader.com/images/4rv24o5uwrm9ybbmajj.jpg
    http://www.imuploader.com/images/3j4d3c4hb383gkjblv.jpg

    Code:
    
    
    .. K i n g o f M o v i e   ..   P r a u d l e y p r e g a n t s ..
    
    
    
    
    IMDb Link........: http://www.imdb.com/title/tt1602476/
    Source...........: PDVD @ WASP 
    Ripper...........: Princeplain (Aamir) -DrC
    
    
    General
    
    Format                           : AVI
    Format/Info                      : Audio Video Interleave
    File size                        : 689 MiB
    Duration                         : 4h 23mn
    Overall bit rate                 : 365 Kbps
    Writing library                  : MPlayer
    
    Video
    ID                               : 0
    Format                           : MPEG-4 Visual
    Format profile                   : Advanced [email protected]
    Format settings, BVOP            : Yes
    Format settings, QPel            : Yes
    Format settings, GMC             : No warppoints
    Format settings, Matrix          : Default (H.263)
    Codec ID                         : XVID
    Codec ID/Hint                    : XviD
    Duration                         : 2h 11mn
    Bit rate                         : 677 Kbps
    Width                            : 608 pixels
    Height                           : 256 pixels
    Display aspect ratio             : 2.35:1
    Frame rate                       : 29.970 fps
    Resolution                       : 8 bits
    Colorimetry                      : 4:2:0
    Scan type                        : Progressive
    Bits/(Pixel*Frame)               : 0.145
    Stream size                      : 639 MiB (93%)
    Writing library                  : XviD 1.2.1 (UTC 2008-12-04)
    
    Audio
    ID                               : 1
    Format                           : MPEG Audio
    Format version                   : Version 2
    Format profile                   : Layer 3
    Mode                             : Joint stereo
    Format_Settings_ModeExtension    : MS Stereo
    Codec ID                         : 55
    Codec ID/Hint                    : MP3
    Duration                         : 4h 23mn
    Bit rate mode                    : Variable
    Bit rate                         : 39.9 Kbps
    Nominal bit rate                 : 48.0 Kbps
    Channel(s)                       : 2 channels
    Sampling rate                    : 22.05 KHz
    Stream size                      : 37.6 MiB (5%)
    Alignment                        : Aligned on interleaves
    Interleave, duration             : 26 ms (0.78 video frame)
    Interleave, preload duration     : 542 ms
    Writing library                  : LAME3.98r
    
    
    
    
    
    
    Ripper Notes:
    
    Duration : 2h 11mn 52sec
    
    
    

    Credit To Ripper Amir07






    Sample






    Code:
    http://hotfile.com/dl/42354996/ff57cdf/B.a.D.m.A.5.H..Company.EU.PDVDRip.Rip.1.Cd.RIP.XviD.King.Of.Movie.avi.001.html
    http://hotfile.com/dl/42354907/d972308/B.a.D.m.A.5.H..Company.EU.PDVDRip.Rip.1.Cd.RIP.XviD.King.Of.Movie.avi.002.html
    http://hotfile.com/dl/42354859/f5d6c6e/B.a.D.m.A.5.H..Company.EU.PDVDRip.Rip.1.Cd.RIP.XviD.King.Of.Movie.avi.003.html
    
    
    http://hotfile.com/dl/42354997/d0b1b8d/B.a.D.m.A.5.H..Company.EU.PDVDRip.Rip.1.Cd.RIP.XviD.King.Of.Movie.srt.html





    Singal 700Mb Sharingmatrix Link

    Code:
    http://www.sharingmatrix.com/file/4755780/B.a.D.m.A.5.H.$.Company.EU.PDVDRip.Rip.1.Cd.RIP.XviD.King.Of.Movie.avi
    
    
    
    http://www.sharingmatrix.com/file/4755560/B.a.D.m.A.5.H.$.Company.EU.PDVDRip.Rip.1.Cd.RIP.XviD.King.Of.Movie.srt

    Singal 700Mb Easy Share Link


    Code:
    
    http://www.easy-share.com/1910194448/B.a.D.m.A.5.H.$.Company.EU.PDVDRip.Rip.1.Cd.RIP.XviD.King.Of.Movie.avi
    
    
    http://www.easy-share.com/1910194442/B.a.D.m.A.5.H.$.Company.EU.PDVDRip.Rip.1.Cd.RIP.XviD.King.Of.Movie.srt

    Singal 700Mb Uploading Link

    Code:
    http://uploading.com/files/dd1bd5df/B.a.D.m.A.5.H.%2524.Company.EU.PDVDRip.Rip.1.Cd.RIP.XviD.King.Of.Movie.avi/
    
    http://uploading.com/files/6e32e7d6/B.a.D.m.A.5.H.%2524.Company.EU.PDVDRip.Rip.1.Cd.RIP.XviD.King.Of.Movie.srt/


    Use HjSplit to Join the above files.
    Code:
    http://hotfile.com/dl/36705783/1711ca4/hjsplit.exe.html
    Last edited by King Of Movie; 05-11-2010 at 09:32 PM.

 

 

Posting Permissions

  • You may not post new threads
  • You may not post replies
  • You may not post attachments
  • You may not edit your posts
  •