Results 1 to 1 of 1
  1. #1
    Administrators www.desirulez.net
    Join Date
    Mar 2010
    Location
    Sea Side
    Posts
    9,872

    T

    Default Lahore (2010) 1 CD DVDRip ENG Subs XviD

    Follow us on Social Media








    Lahore (2010) 1 CD DVDRip ENG Subs XviD AC3



















    CLICK HERE FOR SAMPLE
    Code:
    
    Click to Download English SUBTITLE 
    Info: -
    Format                           : AVI
    Format/Info                      : Audio Video Interleave
    Format profile                   : OpenDML
    File size                        : 601 MiB
    Duration                         : 2h 16mn
    Overall bit rate                 : 618 Kbps
    Writing application              : AVI-Mux GUI 1.17.8.3, Feb 16 201019:42:50
    
    Video
    ID                               : 0
    Format                           : MPEG-4 Visual
    Format profile                   : Advanced [email protected]
    Format settings, BVOP            : Yes
    Format settings, QPel            : No
    Format settings, GMC             : No warppoints
    Format settings, Matrix          : Default (H.263)
    Codec ID                         : XVID
    Codec ID/Hint                    : XviD
    Duration                         : 2h 16mn
    Bit rate                         : 520 Kbps
    Width                            : 688 pixels
    Height                           : 288 pixels
    Display aspect ratio             : 2.35:1
    Frame rate                       : 23.976 fps
    Resolution                       : 8 bits
    Colorimetry                      : 4:2:0
    Scan type                        : Progressive
    Bits/(Pixel*Frame)               : 0.110
    Stream size                      : 507 MiB (84%)
    Writing library                  : XviD 1.2.1 (UTC 2008-12-04)
    
    Audio
    ID                               : 1
    Format                           : MPEG Audio
    Format version                   : Version 1
    Format profile                   : Layer 3
    Mode                             : Joint stereo
    Format_Settings_ModeExtension    : MS Stereo
    Codec ID                         : 55
    Codec ID/Hint                    : MP3
    Duration                         : 2h 16mn
    Bit rate mode                    : Variable
    Bit rate                         : 90.4 Kbps
    Nominal bit rate                 : 96.0 Kbps
    Channel(s)                       : 2 channels
    Sampling rate                    : 32.0 KHz
    Stream size                      : 88.1 MiB (15%)
    Alignment                        : Aligned on interleaves
    Interleave, duration             : 36 ms (0.86 video frame)
    Interleave, preload duration     : 194 ms
    Title                            : VTS_08_1 T81 2_0ch 128Kbps DELAY 0ms_new
    Writing library                  : LAME3.98r
    Encoding settings                : -m j -V 4 -q 2 -lowpass 15.1 --abr 96
    Code:
    http://rapidshare.com/files/384835320/Lahore.2CD.DvD.AC3.XviD-By.Kamran444.avi.001
    http://rapidshare.com/files/384835300/Lahore.2CD.DvD.AC3.XviD-By.Kamran444.avi.002
    http://rapidshare.com/files/384835285/Lahore.2CD.DvD.AC3.XviD-By.Kamran444.avi.003
    http://rapidshare.com/files/384835301/Lahore.2CD.DvD.AC3.XviD-By.Kamran444.avi.004
    http://rapidshare.com/files/384836431/Lahore.2CD.DvD.AC3.XviD-By.Kamran444.avi.005
    http://rapidshare.com/files/384836090/Lahore.2CD.DvD.AC3.XviD-By.Kamran444.avi.006
    http://rapidshare.com/files/384836059/Lahore.2CD.DvD.AC3.XviD-By.Kamran444.avi.007
    http://rapidshare.com/files/384835827/Lahore.2CD.DvD.AC3.XviD-By.Kamran444.avi.008
    http://rapidshare.com/files/384835535/Lahore.2CD.DvD.AC3.XviD-By.Kamran444.srt
    Code:
    http://rapidshare.com/files/384820788/Lahore_2010_1CD_DVDRiP_XviD.By.Kamran444.avi.001
    http://rapidshare.com/files/384820783/Lahore_2010_1CD_DVDRiP_XviD.By.Kamran444.avi.002
    http://rapidshare.com/files/384820763/Lahore_2010_1CD_DVDRiP_XviD.By.Kamran444.avi.003
    http://rapidshare.com/files/384820742/Lahore_2010_1CD_DVDRiP_XviD.By.Kamran444.avi.004
    http://rapidshare.com/files/384820414/Lahore_2010_1CD_DVDRiP_XviD.By.Kamran444.srt

 

 

Posting Permissions

  • You may not post new threads
  • You may not post replies
  • You may not post attachments
  • You may not edit your posts
  •