Results 1 to 1 of 1
  1. #1
    Banned www.desirulez.net
    Join Date
    Jan 2011
    Posts
    193

    T

    Default The Kiss Of Dragon (2001) Telugu Dubbed - 1CD - 720P - BluRayRip TeamMirchi Exclusive

    Follow us on Social Media














    Code:
    Format                                   : Matroska
    Format version                           : Version 2
    File size                                : 701 MiB
    Duration                                 : 1h 27mn
    Overall bit rate                         : 1 124 Kbps
    
    Video
    
    Format                                   : AVC
    Format/Info                              : Advanced Video Codec
    Codec ID                                 : V_MPEG4/ISO/AVC
    Duration                                 : 1h 27mn
    Bit rate                                 : 965 Kbps
    Width                                    : 1 280 pixels
    Height                                   : 544 pixels
    Display aspect ratio                     : 2.35:1
    Frame rate                               : 25.000 fps
    Scan type                                : Progressive
    Bits/(Pixel*Frame)                       : 0.055
    Stream size                              : 587 MiB (84%)
    
    
    
    Audio
    ID                                       : 1
    Format                                   : MPEG Audio
    Format version                           : Version 1
    Format profile                           : Layer 3
    Mode                                     : Joint stereo
    Codec ID/Hint                            : MP3
    Duration                                 : 1h 27mn
    Bit rate mode                            : Constant
    Bit rate                                 : 160 Kbps
    Channel(s)                               : 2 channels
    Sampling rate                            : 48.0 KHz
    Stream size                              : 99.8 MiB (14%)






    SINGLE FILE LINKS


    Code:
    http://file4sharing.com/cmq2jnguvhiu
    
    http://www.filedino.com/e19k5uxo7mje
    
    http://muchshare.net/8j7q87vv03ff
    
    http://glumbouploads.com/etb66et7du0n
    MULTI LINKS SPLIT

    Code:
    PART 1  http://file4sharing.com/mbzmmr3gic45
    
    PART 2  http://file4sharing.com/ifm5fhatls5a
    
    PART 3  http://file4sharing.com/qp5gpl0fuv2p
    Code:
    PART 1  http://www.filedino.com/fmtrkroentkw
    
    PART 2  http://www.filedino.com/a9xs8oaacvfo
    
    PART 3  http://www.filedino.com/bk379m4bsno7
    Code:
    PART 1  http://muchshare.net/5qcoxwnvvvol
    
    PART 2  http://muchshare.net/a9jzdqqv0zlq
    
    PART 3  http://muchshare.net/yb1pvm4r506w

    CREDITS TO

    [email protected] MIRCHI



 

 

Posting Permissions

  • You may not post new threads
  • You may not post replies
  • You may not post attachments
  • You may not edit your posts
  •