Results 1 to 1 of 1
  1. #1

    Default Daggaraga Dooranga 2011 2CD DVD Rip .:: Assassin :: GMH ::.

    Follow us on Social Media







    Media Information


    General

    Complete name : Daggaraga Dooranga 2011 2CD DVD Rip.mkv
    Format : Matroska
    File size : 1.36 GiB
    Duration : 2h 21mn
    Overall bit rate : 1 375 Kbps

    Video

    Format : AVC
    Duration : 2h 21mn
    Bit rate : 900 Kbps
    Nominal bit rate : 926 Kbps
    Width : 720 pixels
    Height : 304 pixels
    Display aspect ratio : 2.35:1
    Frame rate : 29.970 fps
    Resolution : 24 bits
    Colorimetry : 4:2:0
    Scan type : Progressive
    Bits/(Pixel*Frame) : 0.137
    Stream size : 910 MiB (65%)

    Audio

    Format : AC-3
    Duration : 2h 21mn
    Bit rate mode : Constant
    Bit rate : 448 Kbps
    Channel(s) : 6 channels
    Channel positions : Front: L C R, Surround: L R, LFE
    Sampling rate : 48.0 KHz
    Stream size : 453 MiB (33%)
    Screen Shots















    Download Links
    WUpload Links

    Code:
    http://www.wupload.com/file/2521683732
    http://www.wupload.com/file/2521803767
    http://www.wupload.com/file/2521819957
    http://www.wupload.com/file/2521862687
    http://www.wupload.com/file/2521825327
    or

    Code:
    http://www.wupload.com/file/2522383597
    http://www.wupload.com/file/2522383612
    http://www.wupload.com/file/2522383627
    http://www.wupload.com/file/2522383642
    http://www.wupload.com/file/2522383652
    Mirror Links

    Code:
    http://filepost.com/files/5e822db4/GMH-M-T-85-Leader-DaggaragaDooranga.part1.rar/
    http://filepost.com/files/3e2abab8/GMH-M-T-85-Leader-DaggaragaDooranga.part1.rev/
    http://filepost.com/files/fm5d972d/GMH-M-T-85-Leader-DaggaragaDooranga.part2.rar/
    http://filepost.com/files/c3994aa7/GMH-M-T-85-Leader-DaggaragaDooranga.part3.rar/
    http://filepost.com/files/4f2fma54/GMH-M-T-85-Leader-DaggaragaDooranga.part4.rar/
    Code:
    http://www.fileserve.com/file/Sq3N6du
    http://www.fileserve.com/file/nuTGxyd
    http://www.fileserve.com/file/AtEGG6J
    http://www.fileserve.com/file/TXm5zmM
    http://www.fileserve.com/file/aG5PGYt
    Code:
    http://www.filesonic.com/file/3935455755/GMH-M-T-85-Leader-DaggaragaDooranga.part1.rar
    http://www.filesonic.com/file/3935550605/GMH-M-T-85-Leader-DaggaragaDooranga.part1.rev
    http://www.filesonic.com/file/3936622883/GMH-M-T-85-Leader-DaggaragaDooranga.part2.rar
    http://www.filesonic.com/file/3936622863/GMH-M-T-85-Leader-DaggaragaDooranga.part3.rar
    http://www.filesonic.com/file/3936664733/GMH-M-T-85-Leader-DaggaragaDooranga.part4.rar

    Code:
    http://www.filejungle.com/f/C8myRA
    http://www.filejungle.com/f/ycnpMj
    http://www.filejungle.com/f/4hsAF3
    http://www.filejungle.com/f/BPfVPY
    http://www.filejungle.com/f/Fey3YJ
    Password


    Leader

 

 

Posting Permissions

  • You may not post new threads
  • You may not post replies
  • You may not post attachments
  • You may not edit your posts
  •