Results 1 to 2 of 2
  1. #1

    Default Chiru Navvutho 2000 1CD DVD Rip .:: Assassin :: GMH ::.

    Follow us on Social Media







    Media Information

    General

    Complete name : Chirunavvutho DVD Rip.avi
    Format : AVI
    File size : 697 MiB
    Duration : 2h 26mn
    Overall bit rate : 664 Kbps

    Video

    Format : MPEG-4 Visual
    Duration : 2h 26mn
    Bit rate : 570 Kbps
    Width : 576 pixels
    Height : 256 pixels
    Display aspect ratio : 2.25:1
    Frame rate : 29.970 fps
    Resolution : 24 bits
    Colorimetry : 4:2:0
    Scan type : Progressive
    Bits/(Pixel*Frame) : 0.129
    Stream size : 598 MiB (86%)

    Audio

    Format : MPEG Audio
    Duration : 2h 26mn
    Bit rate mode : Variable
    Bit rate : 80.3 Kbps
    Minimum bit rate : 32.0 Kbps
    Channel(s) : 2 channels
    Sampling rate : 48.0 KHz
    Resolution : 16 bits
    Stream size : 84.3 MiB (12%)
    Screen Shots















    Download Links

    WUpload Links

    Code:
    http://www.wupload.com/file/2521115612
    http://www.wupload.com/file/2521123942
    http://www.wupload.com/file/2521192572
    or

    Code:
    http://www.wupload.com/file/2522373307
    http://www.wupload.com/file/2522373317
    http://www.wupload.com/file/2522373322

    Mirror Links

    Code:
    http://www.filesonic.com/file/3861897525/GMH-M-T-82-Leader-Chirunavvutho.part1.rar
    http://www.filesonic.com/file/3861920785/GMH-M-T-82-Leader-Chirunavvutho.part1.rev
    http://www.filesonic.com/file/3861939515/GMH-M-T-82-Leader-Chirunavvutho.part2.rar
    Code:
    http://filepost.com/files/982ca3m8/GMH-M-T-82-Leader-Chirunavvutho.part1.rar/
    http://filepost.com/files/82421c5m/GMH-M-T-82-Leader-Chirunavvutho.part1.rev/
    http://filepost.com/files/5f9b7558/GMH-M-T-82-Leader-Chirunavvutho.part2.rar/
    Code:
    http://www.fileserve.com/file/vgwvuSp
    http://www.fileserve.com/file/caHwhTZ
    http://www.fileserve.com/file/sTdYhHc
    Code:
    http://www.filejungle.com/f/Pjwx9g
    http://www.filejungle.com/f/dwrktn
    http://www.filejungle.com/f/2RMQ94
    Password


    Leader

  2. #2
    New Arrivals
    Join Date
    Jun 2012
    Posts
    1

    T

    Default

    subtitle ?

 

 

Posting Permissions

  • You may not post new threads
  • You may not post replies
  • You may not post attachments
  • You may not edit your posts
  •