Results 1 to 1 of 1
  1. #1

    Default Chenna Kesava Reddy 2002 2CD DVD Rip .:: Assassin :: GMH ::.

    Follow us on Social Media







    Media Information

    Disc I

    General

    Complete name : Chennakesava Reddy 2CD DVD Rip CD I.avi
    Format : AVI
    File size : 706 MiB
    Duration : 1h 14mn
    Overall bit rate : 1 325 Kbps

    Video

    Format : MPEG-4 Visual
    Duration : 1h 14mn
    Bit rate : 1 192 Kbps
    Width : 640 pixels
    Height : 288 pixels
    Display aspect ratio : 2.222
    Frame rate : 23.976 fps
    Resolution : 24 bits
    Colorimetry : 4:2:0
    Scan type : Progressive
    Bits/(Pixel*Frame) : 0.270
    Stream size : 635 MiB (90%)

    Audio

    Format : MPEG Audio
    Duration : 1h 14mn
    Bit rate mode : Variable
    Bit rate : 120 Kbps
    Nominal bit rate : 128 Kbps
    Channel(s) : 2 channels
    Sampling rate : 48.0 KHz
    Resolution : 16 bits
    Stream size : 64.0 MiB (9%)

    Disc II

    General

    Complete name : Chennakesava Reddy 2CD DVD Rip CD II.avi
    Format : AVI
    File size : 694 MiB
    Duration : 1h 10mn
    Overall bit rate : 1 380 Kbps

    Video

    Format : MPEG-4 Visual
    Duration : 1h 10mn
    Bit rate : 1 248 Kbps
    Width : 640 pixels
    Height : 288 pixels
    Display aspect ratio : 2.222
    Frame rate : 23.976 fps
    Resolution : 24 bits
    Colorimetry : 4:2:0
    Scan type : Progressive
    Bits/(Pixel*Frame) : 0.282
    Stream size : 628 MiB (90%)

    Audio

    Format : MPEG Audio
    Duration : 1h 10mn
    Bit rate mode : Variable
    Bit rate : 120 Kbps
    Channel(s) : 2 channels
    Sampling rate : 48.0 KHz
    Resolution : 16 bits
    Stream size : 60.3 MiB (9%)
    Screen Shots













    Download Links

    File Sonic Links

    Code:
    http://www.filesonic.com/file/3700981145
    http://www.filesonic.com/file/3701046835
    http://www.filesonic.com/file/3701102375
    http://www.filesonic.com/file/3701187035
    http://www.filesonic.com/file/3701178235
    Mirror Links

    Code:
    http://www.fileserve.com/file/jZBeqZE
    http://www.fileserve.com/file/f6GGHMT
    http://www.fileserve.com/file/UKbFEzN
    http://www.fileserve.com/file/mgne9Vf
    http://www.fileserve.com/file/6mChvx5

    Code:
    http://www.filejungle.com/f/H9A9rP
    http://www.filejungle.com/f/9YcHVT
    http://www.filejungle.com/f/kRehDa
    http://www.filejungle.com/f/rRXtyX
    http://www.filejungle.com/f/yQAu5d

    Password


    Leader

 

 

Posting Permissions

  • You may not post new threads
  • You may not post replies
  • You may not post attachments
  • You may not edit your posts
  •