Results 1 to 1 of 1
  1. #1

    Default Brahma 1992 1CD DVD Rip x264 [Team DS]

    Follow us on Social Media







    Media Information

    General

    Complete Name : Brahma 1992 1CD DVD.mp4
    Format : MPEG-4
    File size : 701 MiB
    Duration : 2h 6mn
    Overall bit rate : 774 Kbps

    Video

    Format : AVC
    Duration : 2h 6mn
    Bit rate mode : Variable
    Bit rate : 643 Kbps
    Maximum bit rate : 2 141 Kbps
    Width : 608 pixels
    Height : 336 pixels
    Display aspect ratio : 16:9
    Frame rate mode : Constant
    Frame rate : 23.976 fps
    Resolution : 24 bits
    Colorimetry : 4:2:0
    Scan type : Progressive
    Bits/(Pixel*Frame) : 0.131
    Stream size : 582 MiB (83%)

    Audio

    Format : AAC
    Duration : 2h 6mn
    Bit rate mode : Variable
    Bit rate : 128 Kbps
    Maximum bit rate : 144 Kbps
    Channel(s) : 2 channels
    Channel positions : L R
    Sampling rate : 48.0 KHz
    Resolution : 16 bits
    Stream size : 116 MiB (17%)
    Screen Shots











    Code:
    http://www.filejungle.com/f/u3NYJB/GMH-M-T-35-Leader-Brahma.part1.rar
    http://www.filejungle.com/f/ZUDSqv/GMH-M-T-35-Leader-Brahma.part1.rev
    http://www.filejungle.com/f/y3Ffnz/GMH-M-T-35-Leader-Brahma.part2.rar


    Code:
    http://www.filesonic.com/file/4087296295/GMH-M-T-35-Leader-Brahma.part1.rar
    http://www.filesonic.com/file/4087578685/GMH-M-T-35-Leader-Brahma.part1.rev
    http://www.filesonic.com/file/4087582775/GMH-M-T-35-Leader-Brahma.part2.rar


    Code:
    http://www.fileserve.com/file/VbQp9zR/GMH-M-T-35-Leader-Brahma.part2.rar
    http://www.fileserve.com/file/utBr4XB/GMH-M-T-35-Leader-Brahma.part1.rev
    http://www.fileserve.com/file/aQXaAp5/GMH-M-T-35-Leader-Brahma.part1.rar
    Password


    Leader

 

 

Posting Permissions

  • You may not post new threads
  • You may not post replies
  • You may not post attachments
  • You may not edit your posts
  •