Results 1 to 1 of 1
  1. #1

    Default Bamma Maata Bangaru Bata 1990 2CD DVD Rip .:: Assassin :: GMH ::.

    Follow us on Social Media







    Media Information

    Disc I

    General

    Complete name : Bamma Maata Bangaru 2CD DVD Rip CD I.avi
    Format : AVI
    File size : 700 MiB
    Duration : 1h 29mn
    Overall bit rate : 1 099 Kbps

    Video

    Format : MPEG-4 Visual
    Duration : 1h 29mn
    Bit rate : 643 Kbps
    Width : 368 pixels
    Height : 272 pixels
    Display aspect ratio : 4:3
    Frame rate : 29.970 fps
    Resolution : 24 bits
    Colorimetry : 4:2:0
    Scan type : Progressive
    Bits/(Pixel*Frame) : 0.214
    Stream size : 409 MiB (59%)

    Audio

    Format : AC-3
    Duration : 1h 29mn
    Bit rate mode : Constant
    Bit rate : 448 Kbps
    Channel(s) : 6 channels
    Channel positions : Front: L C R, Surround: L R, LFE
    Sampling rate : 48.0 KHz
    Stream size : 285 MiB (41%)

    Disc I

    General

    Complete Name : Bamma Maata Bangaru 2CD DVD Rip CD II.avi
    Format : AVI
    File size : 701 MiB
    Duration : 1h 24mn
    Overall bit rate : 1 156 Kbps

    Video

    Format : MPEG-4 Visual
    Duration : 1h 24mn
    Bit rate : 701 Kbps
    Width : 368 pixels
    Height : 272 pixels
    Display aspect ratio : 4:3
    Frame rate : 29.970 fps
    Resolution : 24 bits
    Colorimetry : 4:2:0
    Scan type : Progressive
    Bits/(Pixel*Frame) : 0.234
    Stream size : 425 MiB (61%)

    Audio

    Format : AC-3
    Duration : 1h 24mn
    Bit rate mode : Constant
    Bit rate : 448 Kbps
    Channel(s) : 6 channels
    Channel positions : Front: L C R, Surround: L R, LFE
    Sampling rate : 48.0 KHz
    Stream size : 272 MiB (39%)
    Screen Shots














    Download Links

    FileJungle Links

    Code:
    http://www.filejungle.com/f/MxFZGS
    http://www.filejungle.com/f/4vdBAk
    http://www.filejungle.com/f/ERKdn9
    http://www.filejungle.com/f/ZqEkwd
    http://www.filejungle.com/f/9EWQ6B
    FileSonic Links

    Code:
    http://www.filesonic.com/file/3497072695/GMH-M-T-71-Leader-BammaMaataBangaru.part1.rar
    http://www.filesonic.com/file/3497114355/GMH-M-T-71-Leader-BammaMaataBangaru.part1.rev
    http://www.filesonic.com/file/3497781815/GMH-M-T-71-Leader-BammaMaataBangaru.part2.rar
    http://www.filesonic.com/file/3497719125/GMH-M-T-71-Leader-BammaMaataBangaru.part3.rar
    http://www.filesonic.com/file/3498057855/GMH-M-T-71-Leader-BammaMaataBangaru.part4.rar
    FileServe Links

    Code:
    http://www.fileserve.com/file/RgQBv5M
    http://www.fileserve.com/file/xbgWvAT
    http://www.fileserve.com/file/SfHDdqm
    http://www.fileserve.com/file/HyFYNdw
    http://www.fileserve.com/file/QB3PVn6
    Password


    Leader

 

 

Posting Permissions

  • You may not post new threads
  • You may not post replies
  • You may not post attachments
  • You may not edit your posts
  •