Results 1 to 1 of 1
  1. #1
    Hot Member www.desirulez.net
    Join Date
    Sep 2010
    Posts
    1,427

    T

    Arrow Arey (2006) - 1CD - HD - OFV Rip - X264 - MP3 [Team SD]

    Follow us on Social Media








    Quote:
    Code:
    Complete name : Arey (2006) Telugu HD OFV Rip 1CD X264 AAC [Team SD].mkv
    Format                           : Matroska
    File size                        : 748 MiB
    Duration                         : 2h 5mn
    Overall bit rate                 : 832 Kbps
    Writing application              : Lavf52.39.1
    Writing library                  : Lavf52.39.1
    
    Video
    ID                               : 1
    Format                           : MPEG-4 Visual
    Format profile                   : [email protected]
    Format settings, BVOP            : No
    Format settings, QPel            : No
    Format settings, GMC             : No warppoints
    Format settings, Matrix          : Default (H.263)
    Codec ID                         : V_MPEG4/ISO/ASP
    Codec ID/Info                    : Advanced Simple Profile
    Duration                         : 2h 5mn
    Bit rate                         : 688 Kbps
    Width                            : 624 pixels
    Height                           : 272 pixels
    Display aspect ratio             : 2.25:1
    Frame rate mode                  : Constant
    Frame rate                       : 25.000 fps
    Color space                      : YUV
    Chroma subsampling               : 4:2:0
    Bit depth                        : 8 bits
    Scan type                        : Progressive
    Compression mode                 : Lossy
    Bits/(Pixel*Frame)               : 0.162
    Stream size                      : 618 MiB (83%)
    Writing library                  : Lavc52.37.0
    Language                         : English
    
    Audio
    ID                               : 2
    Format                           : MPEG Audio
    Format version                   : Version 1
    Format profile                   : Layer 2
    Codec ID                         : A_MPEG/L2
    Codec ID/Hint                    : MP2
    Duration                         : 2h 5mn
    Bit rate mode                    : Constant
    Bit rate                         : 128 Kbps
    Channel(s)                       : 2 channels
    Sampling rate                    : 44.1 KHz
    Bit depth                        : 16 bits
    Compression mode                 : Lossy
    Stream size                      : 115 MiB (15%)













    100% No Watermarks
    Source :: HD Source @ Team SD
    Ripper & Uploader :: Team SD

    Download Links::
    Code:
    http://www.filefactory.com/file/cc89e5a/n/Arey.2006.1CD.HD.OFV.By.Team.SD.mkv.001
    http://www.filefactory.com/file/cc89e5c/n/Arey.2006.1CD.HD.OFV.By.Team.SD.mkv.002
    http://www.filefactory.com/file/cc89e50/n/Arey.2006.1CD.HD.OFV.By.Team.SD.mkv.003
    http://www.filefactory.com/file/cc89e5e/n/Arey.2006.1CD.HD.OFV.By.Team.SD.mkv.004
    
    http://www.wupload.com/file/66310445
    http://www.wupload.com/file/66311227
    http://www.wupload.com/file/66310775
    http://www.wupload.com/file/66310786
    
    http://www.uploadstation.com/file/ffHthu4
    http://www.uploadstation.com/file/jcVqb95
    http://www.uploadstation.com/file/7CjUUqs
    http://www.uploadstation.com/file/5XJVanu
    All Links Are Interchangeable Join Them Using HJ Split

    Single Links::
    Code:
    http://www.fileserve.com/file/tnDxc47/Arey.2006.1CD.HD.OFV.By.Team.SD.mkv
    
    http://www.filefactory.com/file/cc89e5f/n/Arey.2006.1CD.HD.OFV.By.Team.SD.mkv
    
    http://www.wupload.com/file/66310785
    
    http://www.uploadstation.com/file/Nn8Bn5A
    Leave Credits To Team SD WhereEver You Share This Rip



    Note : The Particular Content Is Not My Own Content, Got From the Vast Internet...I Am Just Sharing It Here...If Any Prob It Will Be Removed Immediately !




 

 

Posting Permissions

  • You may not post new threads
  • You may not post replies
  • You may not post attachments
  • You may not edit your posts
  •