Results 1 to 1 of 1
  1. #1

    Default Anaganaga Oka Roju 1997 2CD VCD Rip [Team DS]

    Follow us on Social Media







    Media Information


    Disc I

    General

    Complete name : Anagananga Oka Roju VCD CD I.DAT
    Format : CDXA/MPEG-PS
    File size : 611 MiB
    Duration : 1h 0mn
    Overall bit rate : 1 412 Kbps

    Video

    Format : MPEG Video
    Duration : 1h 0mn
    Bit rate mode : Constant
    Bit rate : 1 132 Kbps
    Nominal bit rate : 1 120 Kbps
    Width : 352 pixels
    Height : 288 pixels
    Display aspect ratio : 4:3
    Frame rate : 25.000 fps
    Scan type : Progressive
    Bits/(Pixel*Frame) : 0.447
    Stream size : 490 MiB (80%)

    Audio

    Format : MPEG Audio
    Duration : 1h 0mn
    Bit rate mode : Constant
    Bit rate : 224 Kbps
    Channel(s) : 2 channels
    Sampling rate : 44.1 KHz
    Resolution : 16 bits
    Stream size : 97.0 MiB (16%)

    Disc II


    General

    Complete name : Anagananga Oka Roju VCD CD II.DAT
    Format : CDXA/MPEG-PS
    File size : 650 MiB
    Duration : 1h 4mn
    Overall bit rate : 1 412 Kbps

    Video

    Format : MPEG Video
    Duration : 1h 4mn
    Bit rate mode : Constant
    Bit rate : 1 132 Kbps
    Nominal bit rate : 1 120 Kbps
    Width : 352 pixels
    Height : 288 pixels
    Display aspect ratio : 4:3
    Frame rate : 25.000 fps
    Scan type : Progressive
    Bits/(Pixel*Frame) : 0.447
    Stream size : 521 MiB (80%)

    Audio

    Format : MPEG Audio
    Duration : 1h 4mn
    Bit rate mode : Constant
    Bit rate : 224 Kbps
    Channel(s) : 2 channels
    Sampling rate : 44.1 KHz
    Resolution : 16 bits
    Stream size : 103 MiB (16%)
    Screen Shots














    Download Links



    Code:
    http://www.filejungle.com/f/AQ9dj7/GMH-M-T-17-Leader-AnaganangaOkaRoju.part1.rar
    http://www.filejungle.com/f/3RQJBh/GMH-M-T-17-Leader-AnaganangaOkaRoju.part1.rev
    http://www.filejungle.com/f/bAbbV8/GMH-M-T-17-Leader-AnaganangaOkaRoju.part2.rar
    http://www.filejungle.com/f/UHVHDm/GMH-M-T-17-Leader-AnaganangaOkaRoju.part3.rar

    Password


    Leader

 

 

Posting Permissions

  • You may not post new threads
  • You may not post replies
  • You may not post attachments
  • You may not edit your posts
  •