Results 1 to 1 of 1
  1. #1

    Default Alludugaru 1990 1CD DVD Rip x264 [Team DS]

    Follow us on Social Media







    Media Information

    General

    Complete Name : Alludugaru 1990 DVD.mp4
    Format : MPEG-4
    File size : 699 MiB
    Duration : 2h 23mn
    Overall bit rate : 682 Kbps

    Video

    Format : AVC
    Duration : 2h 23mn
    Bit rate mode : Variable
    Bit rate : 630 Kbps
    Maximum bit rate : 2 459 Kbps
    Width : 496 pixels
    Height : 352 pixels
    Display aspect ratio : 1.409
    Frame rate mode : Constant
    Frame rate : 29.970 fps
    Resolution : 24 bits
    Colorimetry : 4:2:0
    Scan type : Progressive
    Bits/(Pixel*Frame) : 0.120
    Stream size : 645 MiB (92%)

    Audio

    Format : AAC
    Duration : 2h 23mn
    Bit rate mode : Variable
    Bit rate : 48.0 Kbps
    Maximum bit rate : 53.3 Kbps
    Channel(s) : 2 channels
    Channel positions : L R
    Sampling rate : 48.0 KHz
    Resolution : 16 bits
    Stream size : 49.1 MiB (7%)
    Screen Shots
















    Code:
    http://www.filejungle.com/f/nA6Tbk/GMH-M-T-14-Leader-Alludugaru.part1.rar
    http://www.filejungle.com/f/pak9H4/GMH-M-T-14-Leader-Alludugaru.part1.rev
    http://www.filejungle.com/f/UDyd4B/GMH-M-T-14-Leader-Alludugaru.part2.rar



    Code:
    http://www.fileserve.com/file/YRVBhZ9/GMH-M-T-14-Leader-Alludugaru.part1.rev
    http://www.fileserve.com/file/yKHmKDa/GMH-M-T-14-Leader-Alludugaru.part2.rar
    http://www.fileserve.com/file/ACV5Eaq/GMH-M-T-14-Leader-Alludugaru.part1.rar
    Password


    Leader

 

 

Posting Permissions

  • You may not post new threads
  • You may not post replies
  • You may not post attachments
  • You may not edit your posts
  •