Results 1 to 1 of 1
  1. #1
    Hot Member www.desirulez.net
    Join Date
    Sep 2010
    Posts
    1,427

    T

    Arrow Alanaati Tirumala - 100 MB - VCD Rip - HQ - MP4 - AAC - Classic Release

    Follow us on Social Media









    General
    Complete name : Alanati tirumala - 100 MB - VCD Rip by -=DON=- . Team SD.mp4
    Format : MPEG-4
    Format profile : Base Media
    Codec ID : isom
    File size : 99.9 MiB
    Duration : 56mn 40s
    Overall bit rate : 246 Kbps
    Encoded date : UTC 2010-11-26 14:08:44
    Tagged date : UTC 2010-11-26 14:08:44

    Video
    ID : 1
    Format : AVC
    Format/Info : Advanced Video Codec
    Format profile : [email protected]
    Format settings, CABAC : Yes
    Format settings, ReFrames : 4 frames
    Codec ID : avc1
    Codec ID/Info : Advanced Video Coding
    Duration : 56mn 40s
    Bit rate mode : Variable
    Bit rate : 208 Kbps
    Maximum bit rate : 736 Kbps
    Width : 352 pixels
    Height : 240 pixels
    Display aspect ratio : 3:2
    Frame rate mode : Constant
    Frame rate : 29.970 fps
    Standard : NTSC
    Color space : YUV
    Chroma subsampling : 4:2:0
    Bit depth : 8 bits
    Scan type : Progressive
    Bits/(Pixel*Frame) : 0.082
    Stream size : 84.3 MiB (84%)
    Title : Imported with GPAC 0.4.6-DEV (internal rev. 5)
    Writing library : x264 core 98 r1649 c54c47d

    Audio
    ID : 2
    Format : AAC
    Format/Info : Advanced Audio Codec
    Format version : Version 4
    Format profile : LC
    Format settings, SBR : Yes
    Format settings, PS : No
    Codec ID : 40
    Duration : 56mn 40s
    Bit rate mode : Variable
    Bit rate : 35.0 Kbps
    Maximum bit rate : 38.4 Kbps
    Channel(s) : 2 channels
    Channel positions : Front: L R
    Sampling rate : 48.0 KHz
    Stream size : 14.2 MiB (14%)
    Encoded date : UTC 2010-11-26 14:09:06
    Tagged date : UTC 2010-11-26 14:09:07
    Code:
    Source : VCD
    Ripper And Uploader : -=DON=- @ Team SD












    Single Download Links::--

    Code:
    http://www.fileserve.com/file/rx5ez73
    
    http://cramitin.net/lhhu0ehayxvt
    
    http://depositfiles.com/files/wosw1ur5p
    
    http://www.easy-share.com/1913122500/Alanati_tirumala_-_100_MB_-_VCD_Rip_by_-=DON=-_._Team_SD.mp4
    
    http://www.filefactory.com/file/b4775c8/n/Alanati_tirumala_-_100_MB_-_VCD_Rip_by_-_DON_-_Team_SD_mp4
    
    http://hotfile.com/dl/85531052/2f60b90/Alanati_tirumala_-_100_MB_-_VCD_Rip_by_-DON-_._Team_SD.mp4.html
    
    http://x7.to/rca2xb
    
    http://www.ziddu.com/download/12735608/Alanatitirumala-100MB-VCDRipby-DON-.TeamSD.mp4.html
    This Is a VCD Rip made From Original VCD....Enjoy The High Quality Release In Low Size

 

 

Posting Permissions

  • You may not post new threads
  • You may not post replies
  • You may not post attachments
  • You may not edit your posts
  •