Results 1 to 1 of 1
  1. #1

    Default Adavi Ramudu 2004 1CD DVD Rip x264 .:: Team DSz ::.

    Follow us on Social Media







    Media Information
    General

    Complete Name : Adavi Ramudu 2004 1CD DVD Rip x264.mp4
    Format : MPEG-4
    File size : 715 MiB
    Duration : 2h 58mn
    Overall bit rate : 561 Kbps

    Video

    Format : AVC
    Duration : 2h 28mn
    Bit rate mode : Variable
    Bit rate : 594 Kbps
    Maximum bit rate : 1 999 Kbps
    Width : 608 pixels
    Height : 256 pixels
    Display aspect ratio : 2.35:1
    Frame rate mode : Constant
    Frame rate : 23.976 fps
    Resolution : 24 bits
    Colorimetry : 4:2:0
    Scan type : Progressive
    Bits/(Pixel*Frame) : 0.159
    Stream size : 628 MiB (88%)

    Audio

    Format : AAC
    Duration : 2h 58mn
    Bit rate mode : Variable
    Bit rate : 64.6 Kbps
    Maximum bit rate : 119 Kbps
    Channel(s) : 2 channels
    Channel positions : L R
    Sampling rate : 48.0 KHz
    Resolution : 16 bits
    Stream size : 82.3 MiB (12%)
    Screen Shots



    Download



    Code:
    http://www.filejungle.com/f/9HDg3W/GMH-M-T-07-Leader-AdaviRamudu.part1.rar
    http://www.filejungle.com/f/jbYhMb/GMH-M-T-07-Leader-AdaviRamudu.part1.rev
    http://www.filejungle.com/f/JhSBgV/GMH-M-T-07-Leader-AdaviRamudu.part2.rar


    Code:
    http://www.filesonic.com/file/4008295965/GMH-M-T-07-Leader-AdaviRamudu.part1.rar
    http://www.filesonic.com/file/4008415385/GMH-M-T-07-Leader-AdaviRamudu.part2.rar

    Password


    Leader

 

 

Posting Permissions

  • You may not post new threads
  • You may not post replies
  • You may not post attachments
  • You may not edit your posts
  •