Results 1 to 1 of 1
  1. #1
    Hot Member www.desirulez.net
    Join Date
    Sep 2010
    Posts
    1,427

    T

    Arrow Rambo 1V (2008) - 1 CD - Dual Audio[TML & ENG] - X264 - AAC - HQ

    Follow us on Social Media










    Code:
    General
    Format                           : MPEG-4
    Format profile                   : Base Media / Version 2
    Codec ID                         : mp42
    File size                        : 699 MiB
    Duration                         : 1h 27mn
    Overall bit rate                 : 1 121 Kbps
    Encoded date                     : UTC 2011-03-11 12:23:15
    Tagged date                      : UTC 2011-03-11 13:53:54
    Writing application              : HandBrake 0.9.4 2009112300
    
    Video
    
    ID                               : 1
    Format                           : AVC
    Format/Info                      : Advanced Video Codec
    Format profile                   : [email protected]
    Format settings, CABAC           : Yes
    Format settings, ReFrames        : 16 frames
    Codec ID                         : avc1
    Codec ID/Info                    : Advanced Video Coding
    Duration                         : 1h 27mn
    Bit rate mode                    : Variable
    Bit rate                         : 796 Kbps
    Width                            : 652 pixels
    Height                           : 356 pixels
    Display aspect ratio             : 16:9
    Frame rate mode                  : Variable
    Frame rate                       : 25.000 fps
    Minimum frame rate               : 12.500 fps
    Maximum frame rate               : 25.000 fps
    Color space                      : YUV
    Chroma subsampling               : 4:2:0
    Bit depth                        : 8 bits
    Scan type                        : Progressive
    Bits/(Pixel*Frame)               : 0.137
    Stream size                      : 496 MiB (71%)
    Writing library                  : x264 core 79
    
    
    
    Audio #1
    
    ID                               : 2
    Format                           : AAC
    Format/Info                      : Advanced Audio Codec
    Format profile                   : LC
    Codec ID                         : 40
    Duration                         : 1h 27mn
    Bit rate mode                    : Variable
    Bit rate                         : 160 Kbps
    Maximum bit rate                 : 224 Kbps
    Channel(s)                       : 2 channels
    Channel positions                : Front: L R
    Sampling rate                    : 48.0 KHz
    Stream size                      : 99.7 MiB (14%)
    Encoded date                     : UTC 2011-03-11 12:23:15
    Tagged date                      : UTC 2011-03-11 13:53:54
    
    Audio #2
    
    ID                               : 3
    Format                           : AAC
    Format/Info                      : Advanced Audio Codec
    Format profile                   : LC
    Codec ID                         : 40
    Duration                         : 1h 27mn
    Bit rate mode                    : Variable
    Bit rate                         : 160 Kbps
    Maximum bit rate                 : 207 Kbps
    Channel(s)                       : 2 channels
    Channel positions                : Front: L R
    Sampling rate                    : 48.0 KHz
    Stream size                      : 99.7 MiB (14%)
    Encoded date                     : UTC 2011-03-11 12:23:15
    Tagged date                      : UTC 2011-03-11 13:53:54
    
    
    Source Credits : varman3e Ripper :[email protected] @ TMT Uploader : Team SD


























    Download Links::--
    Code:
    http://www.fileserve.com/file/ZhYZk4t
    http://www.fileserve.com/file/gEfDGpT
    http://www.fileserve.com/file/r9MDWXS
    http://www.fileserve.com/file/6AtFtNa
    
    http://filekeen.com/iaf9tduzk4w4/Rambo_1V_(2008)_-_1_CD_-_DVD_Rip_-_Dual_Audio_5BTML_&_ENG_5D_-_X264_-_AAC_-_Team_SD.mp4.001.html
    http://filekeen.com/f7076l0xkpt8/Rambo_1V_(2008)_-_1_CD_-_DVD_Rip_-_Dual_Audio_5BTML_&_ENG_5D_-_X264_-_AAC_-_Team_SD.mp4.002.html
    http://filekeen.com/o1vp77g663vo/Rambo_1V_(2008)_-_1_CD_-_DVD_Rip_-_Dual_Audio_5BTML_&_ENG_5D_-_X264_-_AAC_-_Team_SD.mp4.003.html
    http://filekeen.com/4n31vw192sit/Rambo_1V_(2008)_-_1_CD_-_DVD_Rip_-_Dual_Audio_5BTML_&_ENG_5D_-_X264_-_AAC_-_Team_SD.mp4.004.html
    
    http://www.filefactory.com/file/ca0e271/n/Rambo_1V_(2008)_-_1_CD_-_DVD_Rip_-_Dual_Audio%5BTML_&_ENG%5D_-_X264_-_AAC_-_Team_SD.mp4.001
    http://www.filefactory.com/file/ca0e219/n/Rambo_1V_(2008)_-_1_CD_-_DVD_Rip_-_Dual_Audio%5BTML_&_ENG%5D_-_X264_-_AAC_-_Team_SD.mp4.002
    http://www.filefactory.com/file/ca0e270/n/Rambo_1V_(2008)_-_1_CD_-_DVD_Rip_-_Dual_Audio%5BTML_&_ENG%5D_-_X264_-_AAC_-_Team_SD.mp4.003
    http://www.filefactory.com/file/ca0e215/n/Rambo_1V_(2008)_-_1_CD_-_DVD_Rip_-_Dual_Audio%5BTML_&_ENG%5D_-_X264_-_AAC_-_Team_SD.mp4.004
    All Links Are Interchangeable Join Them Using HJSplit

    Single Links::--
    Code:
    http://www.fileserve.com/file/GaHXUQq
    
    http://filekeen.com/3580sa6lkmn2/Rambo_1V_(2008)_-_1_CD_-_DVD_Rip_-_Dual_Audio_5BTML_&_ENG_5D_-_X264_-_AAC_-_Team_SD.mp4.html
    
    http://www.filefactory.com/file/ca0e20e/n/Rambo_1V_(2008)_-_1_CD_-_DVD_Rip_-_Dual_Audio%5BTML_&_ENG%5D_-_X264_-_AAC_-_Team_SD.mp4

 

 

Posting Permissions

  • You may not post new threads
  • You may not post replies
  • You may not post attachments
  • You may not edit your posts
  •