Results 1 to 1 of 1
  1. #1
    Hot Member www.desirulez.net
    Join Date
    Sep 2010
    Posts
    1,427

    T

    Arrow Mad Max 2 (1981) - 500 MB - Tamil Dubbed - TV Rip - XviD - MP3 - HQ

    Follow us on Social Media









    Rip Info::--
    Code:
    Format                           : Windows Media
    File size                        : 489 MiB
    Duration                         : 1h 30mn
    Overall bit rate mode            : Constant
    Overall bit rate                 : 758 Kbps
    Maximum Overall bit rate         : 765 Kbps
    
    Video
    ID                               : 2
    Format                           : VC-1
    Format profile                   : MP
    Codec ID                         : WMV3
    Codec ID/Info                    : Windows Media Video 9
    Codec ID/Hint                    : WMV3
    Description of the codec         : Windows Media Video 9
    Duration                         : 1h 30mn
    Bit rate mode                    : Constant
    Bit rate                         : 691 Kbps
    Width                            : 720 pixels
    Height                           : 576 pixels
    Display aspect ratio             : 5:4
    Frame rate                       : 25.000 fps
    Standard                         : PAL
    Bit depth                        : 8 bits
    Scan type                        : Progressive
    Compression mode                 : Lossy
    Bits/(Pixel*Frame)               : 0.067
    Stream size                      : 446 MiB (91%)
    
    Audio
    ID                               : 1
    Format                           : WMA
    Format version                   : Version 2
    Codec ID                         : 161
    Codec ID/Info                    : Windows Media Audio
    Description of the codec         : Windows Media Audio 9.2 -  64 kbps, 48 kHz, stereo (A/V) 1-pass CBR
    Duration                         : 1h 30mn
    Bit rate mode                    : Constant
    Bit rate                         : 64.0 Kbps
    Channel(s)                       : 2 channels
    Sampling rate                    : 48.0 KHz
    Bit depth                        : 16 bits
    Stream size                      : 41.3 MiB (8%)
    Code:
    Credits::-- Team TRN
    Uploader::-- Team SD

    Download Links::--
    Code:
    http://www.fileserve.com/file/E76UZYb
    http://www.fileserve.com/file/7qDYu8G
    http://www.fileserve.com/file/RfW8NND
    http://www.fileserve.com/file/TXnjyrN
    
    http://www.ziddu.com/download/14197218/adMax2-TamilDubbed-500MB-TVRip-XviD-MP3-TeamSD.avi.001.html
    http://www.ziddu.com/download/14197220/adMax2-TamilDubbed-500MB-TVRip-XviD-MP3-TeamSD.avi.002.html
    http://www.ziddu.com/download/14197225/adMax2-TamilDubbed-500MB-TVRip-XviD-MP3-TeamSD.avi.003.html
    http://www.ziddu.com/download/14197202/adMax2-TamilDubbed-500MB-TVRip-XviD-MP3-TeamSD.avi.004.html
    
    http://filekeen.com/0uzlakpwyl25/Mad_Max_2_-_Tamil_Dubbed_-_500_MB_-_TV_Rip_-_XviD_-_MP3_-_Team_SD.avi.001.html
    http://filekeen.com/gwjbig0r1tv6/Mad_Max_2_-_Tamil_Dubbed_-_500_MB_-_TV_Rip_-_XviD_-_MP3_-_Team_SD.avi.002.html
    http://filekeen.com/qbixlu1vfdde/Mad_Max_2_-_Tamil_Dubbed_-_500_MB_-_TV_Rip_-_XviD_-_MP3_-_Team_SD.avi.003.html
    http://filekeen.com/yj5bq0dnckyc/Mad_Max_2_-_Tamil_Dubbed_-_500_MB_-_TV_Rip_-_XviD_-_MP3_-_Team_SD.avi.004.html
    
    http://www.filefactory.com/file/ca08fdc/n/Mad_Max_2_-_Tamil_Dubbed_-_500_MB_-_TV_Rip_-_XviD_-_MP3_-_Team_SD.avi.001
    http://www.filefactory.com/file/ca08e33/n/Mad_Max_2_-_Tamil_Dubbed_-_500_MB_-_TV_Rip_-_XviD_-_MP3_-_Team_SD_avi_002
    http://www.filefactory.com/file/ca08e35/n/Mad_Max_2_-_Tamil_Dubbed_-_500_MB_-_TV_Rip_-_XviD_-_MP3_-_Team_SD_avi_003
    http://www.filefactory.com/file/ca08f22/n/Mad_Max_2_-_Tamil_Dubbed_-_500_MB_-_TV_Rip_-_XviD_-_MP3_-_Team_SD.avi.004
    All Links Are Interchangeable Join Them Using HJSplit

    Single Links::--
    Code:
    http://www.fileserve.com/file/eyarrNm
    
    http://filekeen.com/rulqiwebpb9p/Mad_Max_2_-_Tamil_Dubbed_-_500_MB_-_TV_Rip_-_XviD_-_MP3_-_Team_SD.avi.html
    
    http://www.filefactory.com/file/ca08e77/n/Mad_Max_2_-_Tamil_Dubbed_-_500_MB_-_TV_Rip_-_XviD_-_MP3_-_Team_SD.avi

 

 

Posting Permissions

  • You may not post new threads
  • You may not post replies
  • You may not post attachments
  • You may not edit your posts
  •