Results 1 to 1 of 1
  1. #1
    Tech Team www.desirulez.net
    Join Date
    Dec 2010
    Location
    India
    Posts
    434

    T

    Smile Mrs.Doubtfire - 500MB - HQ DTH RIP - Tamil Dubbed

    Follow us on Social Media









    Mrs.Doubtfire - 500MB - HQ DTH RIP - Tamil Dubbed





    General
    Unique ID : 189600601957081923456501166627752583046 (0x8EA3BF67D851CDA0B4C20CDFD2791F86)
    Complete name : Mrs.Doubtfire.mkv
    Format : Matroska
    File size : 499 MiB
    Duration : 1h 55mn
    Overall bit rate : 603 Kbps
    Encoded date : UTC 2011-01-09 13:01:52
    Writing application : mkvmerge v2.9.7 ('Tenderness') built on Jul 1 2009 18:43:35
    Writing library : libebml v0.7.7 + libmatroska v0.8.1

    Video
    ID : 1
    Format : AVC
    Format/Info : Advanced Video Codec
    Format profile : [email protected]
    Format settings, CABAC : Yes
    Format settings, ReFrames : 3 frames
    Codec ID : V_MPEG4/ISO/AVC
    Duration : 1h 55mn
    Bit rate : 537 Kbps
    Width : 720 pixels
    Height : 560 pixels
    Display aspect ratio : 1.402
    Original display aspect ratio : 1.403
    Frame rate : 25.000 fps
    Color space : YUV
    Chroma subsampling : 4:2:0
    Bit depth : 8 bits
    Scan type : Progressive
    Bits/(Pixel*Frame) : 0.053
    Stream size : 436 MiB (87%)
    Writing library : x264 core 68 r1184 88b35c2
    Encoding settings : cabac=1 / ref=3 / deblock=1:0:0 / analyse=0x3:0x113 / me=hex / subme=7 / psy_rd=1.0:0.0 / mixed_ref=1 / me_range=16 / chroma_me=1 / trellis=1 / 8x8dct=1 / cqm=0 / deadzone=21,11 / chroma_qp_offset=-2 / threads=3 / nr=0 / decimate=1 / mbaff=0 / bframes=3 / b_pyramid=0 / b_adapt=1 / b_bias=0 / direct=1 / wpredb=1 / keyint=250 / keyint_min=25 / scenecut=40 / rc=2pass / bitrate=537 / ratetol=1.0 / qcomp=0.60 / qpmin=10 / qpmax=51 / qpstep=4 / cplxblur=20.0 / qblur=0.5 / ip_ratio=1.40 / pb_ratio=1.30 / aq=1:1.00

    Audio
    ID : 2
    Format : MPEG Audio
    Format version : Version 2
    Format profile : Layer 3
    Mode : Joint stereo
    Mode extension : MS Stereo
    Codec ID : A_MPEG/L3
    Codec ID/Hint : MP3
    Duration : 1h 55mn
    Bit rate mode : Constant
    Bit rate : 64.0 Kbps
    Channel(s) : 2 channels
    Sampling rate : 24.0 KHz
    Compression mode : Lossy
    Stream size : 53.0 MiB (11%)
    Title : English
    Language : English





    DOWNLOAD FROM DUCKLOAD::
    Code:
    http://www.duckload.com/download/2063758/Mrs.Doubtfire.mkv

    CREDITS TO Original Releaser


 

 

Posting Permissions

  • You may not post new threads
  • You may not post replies
  • You may not post attachments
  • You may not edit your posts
  •