Results 1 to 1 of 1
  1. #1

    Cool Yavarum Nalam (2009) 2CD - Lotus - DVDRip - XviD

    Follow us on Social Media








    Yavarum Nalam (2009) 2CD - Lotus - DVDRip - XviD




    CD 1 ::
    General
    Complete name :Yavarum Nalam CD 1.avi
    Format : AVI
    Format/Info : Audio Video Interleave
    Format profile : OpenDML
    File size : 700 MiB
    Duration : 1h 18mn
    Overall bit rate : 1 252 Kbps
    Writing application : AVI-Mux GUI 1.17.8.3, Feb 16 201019:42:50

    Video
    ID : 0
    Format : MPEG-4 Visual
    Format profile : Advanced [email protected]
    Format settings, BVOP : Yes
    Format settings, QPel : Yes
    Format settings, GMC : No warppoints
    Format settings, Matrix : Default (H.263)
    Codec ID : XVID
    Codec ID/Hint : XviD
    Duration : 1h 18mn
    Bit rate : 926 Kbps
    Width : 720 pixels
    Height : 304 pixels
    Display aspect ratio : 2.35:1
    Frame rate : 29.970 fps
    Color space : YUV
    Chroma subsampling : 4:2:0
    Bit depth : 8 bits
    Scan type : Progressive
    Compression mode : Lossy
    Bits/(Pixel*Frame) : 0.141
    Stream size : 518 MiB (74%)
    Writing library : XviD 1.2.1 (UTC 2008-12-04)

    Audio
    ID : 1
    Format : AC-3
    Format/Info : Audio Coding 3
    Mode extension : CM (complete main)
    Codec ID : 2000
    Duration : 1h 18mn
    Bit rate mode : Constant
    Bit rate : 320 Kbps
    Channel(s) : 6 channels
    Channel positions : Front: L C R, Side: L R, LFE
    Sampling rate : 48.0 KHz
    Bit depth : 16 bits
    Compression mode : Lossy
    Stream size : 179 MiB (26%)
    Alignment : Aligned on interleaves
    Interleave, duration : 64 ms (1.92 video frames)
    Interleave, preload duration : 192 ms
    Title : VTS_03_1 T80 3_2ch 320Kbps DELAY 64ms
    CD 2 ::

    General
    Complete name :yav 2.avi
    Format : AVI
    Format/Info : Audio Video Interleave
    Format profile : OpenDML
    File size : 610 MiB
    Duration : 59mn 55s
    Overall bit rate : 1 422 Kbps
    Writing application : VTS_03_1 T80 3_2ch 320Kbps DELAY 64ms

    Video
    ID : 0
    Format : MPEG-4 Visual
    Format profile : Advanced [email protected]
    Format settings, BVOP : Yes
    Format settings, QPel : Yes
    Format settings, GMC : No warppoints
    Format settings, Matrix : Default (H.263)
    Codec ID : XVID
    Codec ID/Hint : XviD
    Duration : 59mn 55s
    Bit rate : 1 096 Kbps
    Width : 720 pixels
    Height : 304 pixels
    Display aspect ratio : 2.35:1
    Frame rate : 29.970 fps
    Color space : YUV
    Chroma subsampling : 4:2:0
    Bit depth : 8 bits
    Scan type : Progressive
    Compression mode : Lossy
    Bits/(Pixel*Frame) : 0.167
    Stream size : 470 MiB (77%)
    Writing library : XviD 1.2.1 (UTC 2008-12-04)

    Audio
    ID : 1
    Format : AC-3
    Format/Info : Audio Coding 3
    Mode extension : CM (complete main)
    Codec ID : 2000
    Duration : 59mn 55s
    Bit rate mode : Constant
    Bit rate : 320 Kbps
    Channel(s) : 6 channels
    Channel positions : Front: L C R, Side: L R, LFE
    Sampling rate : 48.0 KHz
    Bit depth : 16 bits
    Compression mode : Lossy
    Stream size : 137 MiB (23%)
    Alignment : Aligned on interleaves
    Interleave, duration : 64 ms (1.92 video frames)
    Title : VTS_03_1 T80 3_2ch 320Kbps DELAY 64ms








    DOWNLOAD FROM DUCKLOAD::
    Code:
    CD 1:
    http://www.duckload.com/download/2083423/yay.avi
    CD 2:
    http://www.duckload.com/download/2063817/yav_2.avi
    DOWNLOAD FROM CRAMIT::
    Code:
    CD 1: 
    http://cramit.in/9x9ake1rqqrx
    CD 2:
    http://cramit.in/cjrg2i3evy3s
    DOWNLOAD FROM FreakShare::
    Code:
    CD 1:
    http://freakshare.com/files/hn43l7rl/yay.avi.html
    CD 2:
    http://freakshare.com/files/ycryu7ua/yav-2.avi.html

    CREDITS TO ORIGINAL RELEASER


 

 

Posting Permissions

  • You may not post new threads
  • You may not post replies
  • You may not post attachments
  • You may not edit your posts
  •