Results 1 to 1 of 1
  1. #1

    Default VIRUTHAGIRI (2010)1CD - UNTOUCHED - PdVDrip -[Single Link]

    Follow us on Social Media







    VIRUTHAGIRI (2010)1CD - UNTOUCHED - PdVDrip -[Single Link]



    General
    Complete name : VIRUTHAGIRI (2010)1CD -PdVDrip - UNTOUCHED.VOB
    Format : MPEG-PS
    File size : 877 MiB
    Duration : 2h 25mn
    Overall bit rate : 841 Kbps

    Video
    ID : 224 (0xE0)
    Format : MPEG Video
    Format version : Version 2
    Format profile : [email protected]
    Format settings, BVOP : Yes
    Format settings, Matrix : Default
    Format settings, GOP : M=3, N=15
    Duration : 2h 25mn
    Bit rate mode : Variable
    Bit rate : 760 Kbps
    Nominal bit rate : 800 Kbps
    Width : 352 pixels
    Height : 240 pixels
    Display aspect ratio : 4:3
    Frame rate : 29.970 fps
    Standard : NTSC
    Color space : YUV
    Chroma subsampling : 4:2:0
    Bit depth : 8 bits
    Scan type : Progressive
    Bits/(Pixel*Frame) : 0.300
    Stream size : 793 MiB (90%)

    Audio
    ID : 192 (0xC0)
    Format : MPEG Audio
    Format version : Version 1
    Format profile : Layer 2
    Duration : 2h 25mn
    Bit rate mode : Constant
    Bit rate : 64.0 Kbps
    Channel(s) : 2 channels
    Sampling rate : 48.0 KHz
    Stream size : 66.8 MiB (8%)








    DOWNLOAD LINK::
    SIZE::800MB

    Code:
    http://www.duckload.com/dl/YnwC2

 

 

Posting Permissions

  • You may not post new threads
  • You may not post replies
  • You may not post attachments
  • You may not edit your posts
  •