Results 1 to 1 of 1
  1. #1
    Super Member www.desirulez.net
    Join Date
    Jul 2010
    Posts
    421

    T

    Thumbs up TopGun [Tamil] Original Dvd Rip 500mb Single Resumable Link

    Follow us on Social Media







    TopGun [Tamil] Original Dvd Rip 500mb Single Resumable Link


    Code:
    Complete name : TopGun Ori Dvd Rip In Tamil.m4v
    Format : MPEG-4
    Format profile : Base Media / Version 2
    Codec ID : mp42
    File size : 492 MiB
    Duration : 1h 43mn
    Overall bit rate : 666 Kbps
    VideoID : 1
    Format : AVC
    Format/Info : Advanced Video Codec
    Format profile : [email protected]
    Format settings, CABAC : Yes
    Format settings,
     ReFrames : 2 frames
    Codec ID : avc1
    Codec ID/Info : Advanced Video Coding
    Duration : 1h 43mn
    Bit rate mode : Variable
    Bit rate : 517 Kbps
    Width : 608 pixels
    Height : 272 pixels
    Display aspect ratio : 2.097
    Original display aspect ratio : 2.096
    Frame rate mode : VariableFrame rate : 23.976 fps
    Minimum frame rate : 23.974 fps
    Maximum frame rate : 23.981 fps
    Resolution : 24 bits
    Colorimetry : 4:2:0
    Scan type : Progressive
    Bits/(Pixel*Frame) : 0.130
    Stream size : 382 MiB (78%)
    Writing library : x264 core 79
    ID : 2
    Format : AAC
    Format/Info : Advanced Audio Codec
    Format version : Version 4
    Format profile : LC
    Format settings, 
    SBR : No
    Codec ID : 40
    Duration : 1h 43mn
    Bit rate mode : Variable
    Bit rate : 144 Kbps
    Maximum bit rate : 238 Kbps
    Channel(s) : 2 channels
    Channel positions : L R
    Sampling rate : 48.0 KHz
    Resolution : 16 bits
    Stream size : 107 MiB (22%)
    Screens:










    Download:

    Code:
    http://www.midupload.com/32a5pelq1t4b

 

 

Posting Permissions

  • You may not post new threads
  • You may not post replies
  • You may not post attachments
  • You may not edit your posts
  •