Results 1 to 1 of 1
  1. #1
    Super Member www.desirulez.net
    Join Date
    Apr 2010
    Posts
    110

    T

    Default Thanbiku.Indha.Ooru - 2010 - Lotus - 1 CD - HQ - TCRIip

    Follow us on Social Media










    General

    Complete name : Thambiku_Indha_Ooru (2010)_Lotus_1CD ~.mp4
    Format : MPEG-4
    Format profile : Base Media
    Codec ID : isom
    File size : 712 MiB
    Duration : 2h 22mn
    Overall bit rate : 698 Kbps

    Video

    ID : 1
    Format : AVC
    Format/Info : Advanced Video Codec
    Format profile : [email protected]
    Format settings, CABAC : Yes
    Format settings, ReFrames : 5 frames
    Codec ID : avc1
    Codec ID/Info : Advanced Video Coding
    Duration : 2h 22mn
    Bit rate mode : Variable
    Bit rate : 647 Kbps
    Nominal bit rate : 636 Kbps
    Maximum bit rate : 3 716 Kbps
    Width : 608 pixels
    Height : 272 pixels
    Display aspect ratio : 2.25
    Frame rate mode : Constant
    Frame rate : 23.976 fps
    Resolution : 24 bits
    Colorimetry : 4:2:0
    Scan type : Progressive
    Bits/(Pixel*Frame) : 0.163
    Stream size : 660 MiB (93%)

    Audio

    ID : 2
    Format : AAC
    Format/Info : Advanced Audio Codec
    Format version : Version 4
    Format profile : LC
    Format settings, SBR : Yes
    Format settings, PS : No
    Codec ID : 40
    Duration : 2h 22mn
    Bit rate mode : Variable
    Bit rate : 48.0 Kbps
    Maximum bit rate : 56.7 Kbps
    Channel(s) : 2 channels
    Channel positions : L R
    Sampling rate : 48.0 KHz
    Resolution : 16 bits
    Stream size : 48.8 MiB (7%)





    Code:
    http://hotfile.com/dl/43782792/cd6f8c4/Thambiku.Indha.Ooru.2010.Lotus.1CD.TCRip.part1.rar.html
    http://hotfile.com/dl/43782862/e208d7e/Thambiku.Indha.Ooru.2010.Lotus.1CD.TCRip.part2.rar.html
    http://hotfile.com/dl/43782958/ee13a81/Thambiku.Indha.Ooru.2010.Lotus.1CD.TCRip.part3.rar.html
    http://hotfile.com/dl/43783044/7cd4143/Thambiku.Indha.Ooru.2010.Lotus.1CD.TCRip.part4.rar.html
    http://hotfile.com/dl/43783170/32f9b09/Thambiku.Indha.Ooru.2010.Lotus.1CD.TCRip.part5.rar.html
    http://hotfile.com/dl/43783264/937f494/Thambiku.Indha.Ooru.2010.Lotus.1CD.TCRip.part6.rar.html
    http://hotfile.com/dl/43783362/160998b/Thambiku.Indha.Ooru.2010.Lotus.1CD.TCRip.part7.rar.html
    http://hotfile.com/dl/43783423/0336983/Thambiku.Indha.Ooru.2010.Lotus.1CD.TCRip.part8.rar.html
    ________
    Missfamous
    Last edited by kumar141; 08-21-2011 at 12:07 AM.

 

 

Posting Permissions

  • You may not post new threads
  • You may not post replies
  • You may not post attachments
  • You may not edit your posts
  •