Results 1 to 1 of 1
  1. #1
    Landed To DesiRulez www.desirulez.net
    Join Date
    Feb 2011
    Posts
    23

    T

    Default Seedan [2011] [Lotus - 1CD - x264 - AAC 5.1 - Subs] - Single Link

    Follow us on Social Media








    Movie Title: Seedan [2011]
    Cast: Dhanush, Ananya, K. Bhagiyaraj, Suhasini Mani Ratnam, Sheela, Ilavarasan, Ponvannan
    Director: Subramaniyam Siva
    Music Director: Dheena
    Production: Amith Mohan
    Release Note: First on Net! by Team TRN

    Release Log

    Code:
    Format                           : MPEG-4
    Format profile                   : Base Media
    Codec ID                         : isom
    File size                        : 711 MiB
    Duration                         : 2h 14mn
    Overall bit rate                 : 738 Kbps
    Encoded date                     : UTC 2011-03-26 15:48:31
    Tagged date                      : UTC 2011-03-26 15:48:31
    
    Video
    ID                               : 1
    Format                           : AVC
    Format/Info                      : Advanced Video Codec
    Format profile                   : [email protected]
    Format settings, CABAC           : Yes
    Format settings, ReFrames        : 4 frames
    Format settings, GOP             : N=11
    Codec ID                         : avc1
    Codec ID/Info                    : Advanced Video Coding
    Duration                         : 2h 14mn
    Bit rate mode                    : Variable
    Bit rate                         : 674 Kbps
    Maximum bit rate                 : 4 579 Kbps
    Width                            : 608 pixels
    Height                           : 272 pixels
    Display aspect ratio             : 2.25:1
    Frame rate mode                  : Constant
    Frame rate                       : 29.970 fps
    Color space                      : YUV
    Chroma subsampling               : 4:2:0
    Bit depth                        : 8 bits
    Scan type                        : Progressive
    Bits/(Pixel*Frame)               : 0.136
    Stream size                      : 649 MiB (91%)
    Title                            : TamilRush.Com - TamilRush.Net
    Writing library                  : x264 core 114 r1913 5fd3dce
    Encoding settings                : cabac=1 / ref=3 / deblock=1:-1:-1 / analyse=0x3:0x113 / me=hex / subme=4 / psy=1 / psy_rd=0.00:0.00 / mixed_ref=1 / me_range=16 / chroma_me=1 / trellis=0 / 8x8dct=1 / cqm=0 / deadzone=21,11 / fast_pskip=1 / chroma_qp_offset=0 / threads=3 / sliced_threads=0 / nr=0 / decimate=1 / interlaced=0 / constrained_intra=0 / bframes=16 / b_pyramid=2 / b_adapt=1 / b_bias=0 / direct=3 / weightb=1 / open_gop=0 / weightp=2 / keyint=250 / keyint_min=25 / scenecut=40 / intra_refresh=0 / rc_lookahead=40 / rc=2pass / mbtree=1 / bitrate=674 / ratetol=1.0 / qcomp=0.60 / qpmin=10 / qpmax=51 / qpstep=4 / cplxblur=20.0 / qblur=0.5 / ip_ratio=1.40 / aq=1:1.00
    Encoded date                     : UTC 2011-03-26 13:50:52
    Tagged date                      : UTC 2011-03-26 15:49:12
    
    Audio
    ID                               : 2
    Format                           : AAC
    Format/Info                      : Advanced Audio Codec
    Format profile                   : HE-AAC / LC
    Codec ID                         : 40
    Duration                         : 2h 14mn
    Bit rate mode                    : Variable
    Bit rate                         : 60.7 Kbps
    Maximum bit rate                 : 95.6 Kbps
    Channel(s)                       : 6 channels
    Channel positions                : Front: L C R, Side: L R, LFE
    Sampling rate                    : 48.0 KHz / 24.0 KHz
    Compression mode                 : Lossy
    Stream size                      : 58.5 MiB (8%)
    Title                            : TamilRush.Com - TamilRush.Net
    Encoded date                     : UTC 2011-03-26 15:49:07
    Tagged date                      : UTC 2011-03-26 15:49:12

    Screenshots



    Code:
    http://www.megaupload.com/?d=D0RPB84P
    Code:
    http://depositfiles.com/de/files/iylq4yzag
    If the Audio is out of Sync , do this.

    Go to VLC Player : TOOLS - > TRACK SYNC -> Audio/Video [and put there] +0.500 [then its fixed]
    Whenever you share give credits to "Adhitya @ [Team TRN]"

 

 

Posting Permissions

  • You may not post new threads
  • You may not post replies
  • You may not post attachments
  • You may not edit your posts
  •