Results 1 to 1 of 1
  1. #1

    Smile Sachin (2005) - 350MB - DVDrip- x264

    Follow us on Social Media









    Sachin(2005) - 350MB - DVDrip- x264






    General
    Complete name : Sachin
    Format : MPEG-4
    Format profile : Base Media
    Codec ID : isom
    File size : 348 MiB
    Duration : 2h 25mn
    Overall bit rate : 335 Kbps
    Encoded date : UTC 2011-01-26 15:42:50
    Tagged date : UTC 2011-01-26 15:42:50

    Video
    ID : 1
    Format : AVC
    Format/Info : Advanced Video Codec
    Format profile : [email protected]
    Format settings, CABAC : Yes
    Format settings, ReFrames : 4 frames
    Codec ID : avc1
    Codec ID/Info : Advanced Video Coding
    Duration : 2h 25mn
    Bit rate mode : Variable
    Bit rate : 284 Kbps
    Maximum bit rate : 1 407 Kbps
    Width : 608 pixels
    Height : 256 pixels
    Display aspect ratio : 2.35:1
    Frame rate mode : Constant
    Frame rate : 25.000 fps
    Color space : YUV
    Chroma subsampling : 4:2:0
    Bit depth : 8 bits
    Scan type : Progressive
    Bits/(Pixel*Frame) : 0.073
    Stream size : 294 MiB (84%)
    Title : Imported with GPAC 0.4.6-DEV (internal rev. 5)
    Writing library : x264 core 98 r1649 c54c47d
    Encoding settings : cabac=1 / ref=3 / deblock=1:0:0 / analyse=0x3:0x113 / me=hex / subme=7 / psy=1 / psy_rd=1.00:0.00 / mixed_ref=1 / me_range=16 / chroma_me=1 / trellis=1 / 8x8dct=1 / cqm=0 / deadzone=21,11 / fast_pskip=1 / chroma_qp_offset=-2 / threads=3 / sliced_threads=0 / nr=0 / decimate=1 / interlaced=0 / constrained_intra=0 / bframes=3 / b_pyramid=2 / b_adapt=1 / b_bias=0 / direct=1 / weightb=1 / weightp=2 / keyint=250 / keyint_min=25 / scenecut=40 / intra_refresh=0 / rc_lookahead=40 / rc=2pass / mbtree=1 / bitrate=284 / ratetol=1.0 / qcomp=0.60 / qpmin=10 / qpmax=51 / qpstep=4 / cplxblur=20.0 / qblur=0.5 / ip_ratio=1.40 / aq=1:1.00
    Encoded date : UTC 2011-01-26 15:42:50
    Tagged date : UTC 2011-01-26 15:43:16

    Audio
    ID : 2
    Format : AAC
    Format/Info : Advanced Audio Codec
    Format profile : LC
    Codec ID : 40
    Duration : 2h 25mn
    Bit rate mode : Variable
    Bit rate : 48.0 Kbps
    Maximum bit rate : 55.2 Kbps
    Channel(s) : 2 channels
    Channel positions : Front: L R
    Sampling rate : 48.0 KHz
    Compression mode : Lossy
    Stream size : 50.0 MiB (14%)
    Encoded date : UTC 2011-01-26 15:43:13
    Tagged date : UTC 2011-01-26 15:43:16







    DOWNLOAD FROM DUCKLOAD::
    Code:
    http://www.duckload.com/download/2529455/Sachin.mp4
    DOWNLOAD FROM FREAKSHARE::
    Code:
    http://freakshare.com/files/4bomi3fz/Sachin.mp4.html

    CREDITS TO Original releaser


 

 

Posting Permissions

  • You may not post new threads
  • You may not post replies
  • You may not post attachments
  • You may not edit your posts
  •