Results 1 to 1 of 1
  1. #1
    dR Rockers www.desirulez.net
    Join Date
    Apr 2011
    Posts
    687

    T

    Default Potta Potti 50-50 (2011) - TC - 1CD - XVID - MP3 [Team IST]

    Follow us on Social Media











    Video
    ID : 0
    Format : MPEG-4 Visual
    Format profile : Advanced [email protected]
    Format settings, BVOP : 2
    Format settings, QPel : No
    Format settings, GMC : No warppoints
    Format settings, Matrix : Default (H.263)
    Codec ID : XVID
    Codec ID/Hint : XviD
    Duration : 1h 54mn
    Bit rate : 774 Kbps
    Width : 608 pixels
    Height : 256 pixels
    Display aspect ratio : 2.35:1
    Frame rate : 29.970 fps
    Color space : YUV
    Chroma subsampling : 4:2:0
    Bit depth : 8 bits
    Scan type : Progressive
    Compression mode : Lossy
    Bits/(Pixel*Frame) : 0.166
    Stream size : 634 MiB (86%)
    Writing library : XviD 1.2.1 (UTC 2008-12-04)


    ID : 1
    Format : MPEG Audio
    Format version : Version 1
    Format profile : Layer 3
    Mode :
    Mode extension : MS Stereo
    Codec ID : 55
    Codec ID/Hint : MP3
    Duration : 1h 54mn
    Bit rate mode : Variable
    Bit rate : 110 Kbps
    Nominal bit rate : 128 Kbps
    Channel(s) : 2 channels
    Sampling rate : 48.0 KHz
    Compression mode : Lossy
    Stream size : 90.6 MiB (12%)
    Alignment : Aligned on interleaves
    Interleave, duration : 24 ms (0.72 video frame)
    Interleave, preload duration : 177 ms
    Title : potaa Tc0 L2 2ch 48 64 DELAY 0ms
    Writing library : LAME3.98r[/code]















    Credits To :- Team IST










    Code:
    http://www.wupload.com/file/116042553/PottaPotti.2011.TCPrint.1CD.XVID.MP3.avi



    Code:
    http://www.filesonic.com/file/1731997181/PottaPotti.2011.TCPrint.1CD.XVID.MP3.avi



    Code:
    http://www.fileserve.com/file/Q7aURK5/PottaPotti.2011.TCPrint.1CD.XVID.MP3.avi





    Code:
    http://www.wupload.com/file/116042506/PottaPotti.2011.TCPrint.1CD.XVID.MP3.avi.001
    http://www.wupload.com/file/116042511/PottaPotti.2011.TCPrint.1CD.XVID.MP3.avi.002
    http://www.wupload.com/file/116042531/PottaPotti.2011.TCPrint.1CD.XVID.MP3.avi.003
    http://www.wupload.com/file/116042521/PottaPotti.2011.TCPrint.1CD.XVID.MP3.avi.004



    Code:
    http://www.filesonic.com/file/1731997131/PottaPotti.2011.TCPrint.1CD.XVID.MP3.avi.001
    http://www.filesonic.com/file/1731997001/PottaPotti.2011.TCPrint.1CD.XVID.MP3.avi.002
    http://www.filesonic.com/file/1731997011/PottaPotti.2011.TCPrint.1CD.XVID.MP3.avi.003
    http://www.filesonic.com/file/1731994841/PottaPotti.2011.TCPrint.1CD.XVID.MP3.avi.004



    Code:
    http://www.fileserve.com/file/2kfaNA9/PottaPotti.2011.TCPrint.1CD.XVID.MP3.avi.001
    http://www.fileserve.com/file/3pbRJJt/PottaPotti.2011.TCPrint.1CD.XVID.MP3.avi.003
    http://www.fileserve.com/file/zbmq26T/PottaPotti.2011.TCPrint.1CD.XVID.MP3.avi.004
    http://www.fileserve.com/file/pzNbMrt/PottaPotti.2011.TCPrint.1CD.XVID.MP3.avi.002


 

 

Posting Permissions

  • You may not post new threads
  • You may not post replies
  • You may not post attachments
  • You may not edit your posts
  •